Адрес РуТрекера для пользователей РФ - MainTracker.org

Расскажи друзьям:  

Bad Boys Blue - 1985-2005 Video Collection [2005, Euro-Disco, DVDRip-AVC] скачать через торрент

Страницы:  1

Ответить
Автор
Сообщение

OS69

Стаж: 2 года 9 месяцев

Сообщений: 10


OS69 · 22-Окт-17 17:05 (28 дней назад, ред. 15-Ноя-17 10:36)

Bad Boys Blue - 1985-2005 Video Collection
Страна: Германия
Жанр: Euro-Disco
Продолжительность: 00:59:20
Год выпуска: 2005
Описание: Сборник видеоклипов группы "Bad Boys Blue".
Треклист:
01. You're A Woman (1985)
02. Pretty Young Girl (1985)
03. Love Really Hurts Without You (1986)
04. I Wanna Hear Your Heartbeat (1986)
05. Kisses And Tears (1986)
06. Come Back And Stay (1987)
07. Don't Walk Away Suzanne (1987)
08. Lovers In The Sand (1987)
09. A World Without You (1988)
10. Hungry For Love (1989)
11. A Train To Nowhere (1989)
12. How I Need You (1990)
13. Queen Of Hearts (1990)
14. Save Your Love (1992)
15. You're A Woman '98 (1998)
16. The Turbomegamix '98 (1998)
Официальный сайт
Источник: DVD5
Качество: DVDRip-AVC
Контейнер: MKV
Видео кодек: x264
Аудио кодек: MP2
01. You're A Woman (1985)
Видео: x264, 720x544 (4:3), 25 fps, 1873 kbps
Аудио: MP2, 2 ch, 48 kHz, 224 kbps
Продолжительность: 0:03:55
MI
General
Unique ID : 193778171306844720697708532871600140628 (0x91C8517A112958ED86A0CDB248ADF154)
Complete name : Bad Boys Blue - Video Collection.2005.DVDRip\01. You're A Woman.mkv
Format : Matroska
Format version : Version 2
File size : 59.9 MiB
Duration : 3 min 54 s
Overall bit rate : 2 140 kb/s
Movie name : You're A Woman (1985)
Encoded date : UTC 2017-03-05 13:24:32
Writing application : mkvmerge v5.8.0 ('No Sleep / Pillow') built on Sep 2 2012 15:37:04
Writing library : libebml v1.2.3 + libmatroska v1.3.0
Video
ID : 1
Format : AVC
Format/Info : Advanced Video Codec
Format profile : High@L4.1
Format settings : CABAC / 16 Ref Frames
Format settings, CABAC : Yes
Format settings, RefFrames : 16 frames
Codec ID : V_MPEG4/ISO/AVC
Duration : 3 min 54 s
Bit rate : 1 873 kb/s
Width : 720 pixels
Height : 544 pixels
Display aspect ratio : 4:3
Frame rate mode : Constant
Frame rate : 25.000 FPS
Color space : YUV
Chroma subsampling : 4:2:0
Bit depth : 8 bits
Scan type : Progressive
Bits/(Pixel*Frame) : 0.191
Stream size : 52.4 MiB (88%)
Title : Rip by OS69
Default : Yes
Forced : Yes
Audio
ID : 2
Format : MPEG Audio
Format version : Version 1
Format profile : Layer 2
Codec ID : A_MPEG/L2
Codec ID/Hint : MP2
Duration : 3 min 54 s
Bit rate mode : Constant
Bit rate : 224 kb/s
Channel(s) : 2 channels
Sampling rate : 48.0 kHz
Compression mode : Lossy
Stream size : 6.27 MiB (10%)
Language : English
Default : Yes
Forced : Yes
Скриншоты
02. Pretty Young Girl (1985)
Видео: x264, 720x544 (4:3), 25 fps, 2091 kbps
Аудио: MP2, 2 ch, 48 kHz, 224 kbps
Продолжительность: 0:03:04
MI
General
Unique ID : 195814066257592545022059915270996604375 (0x93506AD901EE8C7EA6991E582997B5D7)
Complete name : Bad Boys Blue - Video Collection.2005.DVDRip\02. Pretty Young Girl.mkv
Format : Matroska
Format version : Version 2
File size : 51.8 MiB
Duration : 3 min 3 s
Overall bit rate : 2 362 kb/s
Movie name : Pretty Young Girl (1985)
Encoded date : UTC 2017-03-05 13:50:45
Writing application : mkvmerge v5.8.0 ('No Sleep / Pillow') built on Sep 2 2012 15:37:04
Writing library : libebml v1.2.3 + libmatroska v1.3.0
Video
ID : 1
Format : AVC
Format/Info : Advanced Video Codec
Format profile : High@L4.1
Format settings : CABAC / 16 Ref Frames
Format settings, CABAC : Yes
Format settings, RefFrames : 16 frames
Codec ID : V_MPEG4/ISO/AVC
Duration : 3 min 3 s
Bit rate : 2 091 kb/s
Width : 720 pixels
Height : 544 pixels
Display aspect ratio : 4:3
Frame rate mode : Constant
Frame rate : 25.000 FPS
Color space : YUV
Chroma subsampling : 4:2:0
Bit depth : 8 bits
Scan type : Progressive
Bits/(Pixel*Frame) : 0.214
Stream size : 45.9 MiB (89%)
Title : Rip by OS69
Default : Yes
Forced : Yes
Audio
ID : 2
Format : MPEG Audio
Format version : Version 1
Format profile : Layer 2
Codec ID : A_MPEG/L2
Codec ID/Hint : MP2
Duration : 3 min 3 s
Bit rate mode : Constant
Bit rate : 224 kb/s
Channel(s) : 2 channels
Sampling rate : 48.0 kHz
Compression mode : Lossy
Stream size : 4.91 MiB (9%)
Language : English
Default : Yes
Forced : Yes
Скриншоты
03. Love Really Hurts Without You (1986)
Видео: x264, 720x544 (4:3), 25 fps, 2394 kbps
Аудио: MP2, 2 ch, 48 kHz, 224 kbps
Продолжительность: 0:03:09
MI
General
Unique ID : 233075709413190696037456133126574664029 (0xAF58BFB1CDB28EF7AD4AB276EE39695D)
Complete name : Bad Boys Blue - Video Collection.2005.DVDRip\03. Love Really Hurts Without You.mkv
Format : Matroska
Format version : Version 2
File size : 60.2 MiB
Duration : 3 min 9 s
Overall bit rate : 2 671 kb/s
Movie name : Love Really Hurts Without You (1986)
Encoded date : UTC 2017-03-05 13:59:09
Writing application : mkvmerge v5.8.0 ('No Sleep / Pillow') built on Sep 2 2012 15:37:04
Writing library : libebml v1.2.3 + libmatroska v1.3.0
Video
ID : 1
Format : AVC
Format/Info : Advanced Video Codec
Format profile : High@L4.1
Format settings : CABAC / 16 Ref Frames
Format settings, CABAC : Yes
Format settings, RefFrames : 16 frames
Codec ID : V_MPEG4/ISO/AVC
Duration : 3 min 9 s
Bit rate : 2 394 kb/s
Width : 720 pixels
Height : 544 pixels
Display aspect ratio : 4:3
Frame rate mode : Constant
Frame rate : 25.000 FPS
Color space : YUV
Chroma subsampling : 4:2:0
Bit depth : 8 bits
Scan type : Progressive
Bits/(Pixel*Frame) : 0.244
Stream size : 54.0 MiB (90%)
Title : Rip by OS69
Default : Yes
Forced : Yes
Audio
ID : 2
Format : MPEG Audio
Format version : Version 1
Format profile : Layer 2
Codec ID : A_MPEG/L2
Codec ID/Hint : MP2
Duration : 3 min 9 s
Bit rate mode : Constant
Bit rate : 224 kb/s
Channel(s) : 2 channels
Sampling rate : 48.0 kHz
Compression mode : Lossy
Stream size : 5.05 MiB (8%)
Language : English
Default : Yes
Forced : Yes
Скриншоты
04. I Wanna Hear Your Heartbeat (1986)
Видео: x264, 720x544 (4:3), 25 fps, 1292 kbps
Аудио: MP2, 2 ch, 48 kHz, 224 kbps
Продолжительность: 0:03:59
MI
General
Unique ID : 190979470622305655039373827000018536836 (0x8FAD4EE12E0BBEC3A7A54898242A0984)
Complete name : Bad Boys Blue - Video Collection.2005.DVDRip\04. I Wanna Hear Your Heartbeat.mkv
Format : Matroska
Format version : Version 2
File size : 44.1 MiB
Duration : 3 min 59 s
Overall bit rate : 1 547 kb/s
Movie name : I Wanna Hear Your Heartbeat (1986)
Encoded date : UTC 2017-03-05 14:09:42
Writing application : mkvmerge v5.8.0 ('No Sleep / Pillow') built on Sep 2 2012 15:37:04
Writing library : libebml v1.2.3 + libmatroska v1.3.0
Video
ID : 1
Format : AVC
Format/Info : Advanced Video Codec
Format profile : High@L4.1
Format settings : CABAC / 16 Ref Frames
Format settings, CABAC : Yes
Format settings, RefFrames : 16 frames
Codec ID : V_MPEG4/ISO/AVC
Duration : 3 min 59 s
Bit rate : 1 292 kb/s
Width : 720 pixels
Height : 544 pixels
Display aspect ratio : 4:3
Frame rate mode : Constant
Frame rate : 25.000 FPS
Color space : YUV
Chroma subsampling : 4:2:0
Bit depth : 8 bits
Scan type : Progressive
Bits/(Pixel*Frame) : 0.132
Stream size : 36.8 MiB (84%)
Title : Rip by OS69
Default : Yes
Forced : Yes
Audio
ID : 2
Format : MPEG Audio
Format version : Version 1
Format profile : Layer 2
Codec ID : A_MPEG/L2
Codec ID/Hint : MP2
Duration : 3 min 59 s
Bit rate mode : Constant
Bit rate : 224 kb/s
Channel(s) : 2 channels
Sampling rate : 48.0 kHz
Compression mode : Lossy
Stream size : 6.39 MiB (14%)
Language : English
Default : Yes
Forced : Yes
Скриншоты
05. Kisses And Tears (1986)
Видео: x264, 720x544 (4:3), 25 fps, 1806 kbps
Аудио: MP2, 2 ch, 48 kHz, 224 kbps
Продолжительность: 0:03:55
MI
General
Unique ID : 199039002222127296545019468817241267545 (0x95BD847779CAB196B1694A8893C0DD59)
Complete name : Bad Boys Blue - Video Collection.2005.DVDRip\05. Kisses And Tears.mkv
Format : Matroska
Format version : Version 2
File size : 58.0 MiB
Duration : 3 min 54 s
Overall bit rate : 2 071 kb/s
Movie name : Kisses And Tears (1986)
Encoded date : UTC 2017-03-05 14:12:41
Writing application : mkvmerge v5.8.0 ('No Sleep / Pillow') built on Sep 2 2012 15:37:04
Writing library : libebml v1.2.3 + libmatroska v1.3.0
Video
ID : 1
Format : AVC
Format/Info : Advanced Video Codec
Format profile : High@L4.1
Format settings : CABAC / 16 Ref Frames
Format settings, CABAC : Yes
Format settings, RefFrames : 16 frames
Codec ID : V_MPEG4/ISO/AVC
Duration : 3 min 54 s
Bit rate : 1 806 kb/s
Width : 720 pixels
Height : 544 pixels
Display aspect ratio : 4:3
Frame rate mode : Constant
Frame rate : 25.000 FPS
Color space : YUV
Chroma subsampling : 4:2:0
Bit depth : 8 bits
Scan type : Progressive
Bits/(Pixel*Frame) : 0.184
Stream size : 50.6 MiB (87%)
Title : Rip by OS69
Default : Yes
Forced : Yes
Audio
ID : 2
Format : MPEG Audio
Format version : Version 1
Format profile : Layer 2
Codec ID : A_MPEG/L2
Codec ID/Hint : MP2
Duration : 3 min 54 s
Bit rate mode : Constant
Bit rate : 224 kb/s
Channel(s) : 2 channels
Sampling rate : 48.0 kHz
Compression mode : Lossy
Stream size : 6.27 MiB (11%)
Language : English
Default : Yes
Forced : Yes
Скриншоты
06. Come Back And Stay (1987)
Видео: x264, 720x544 (4:3), 25 fps, 1502 kbps
Аудио: MP2, 2 ch, 48 kHz, 224 kbps
Продолжительность: 0:04:07
MI
General
Unique ID : 170394880357506191057116448303770962561 (0x8030DC390585D59BAA627F9EA59B0A81)
Complete name : Bad Boys Blue - Video Collection.2005.DVDRip\06. Come Back And Stay.mkv
Format : Matroska
Format version : Version 2
File size : 51.9 MiB
Duration : 4 min 7 s
Overall bit rate : 1 761 kb/s
Movie name : Come Back And Stay (1987)
Encoded date : UTC 2017-03-05 14:21:40
Writing application : mkvmerge v5.8.0 ('No Sleep / Pillow') built on Sep 2 2012 15:37:04
Writing library : libebml v1.2.3 + libmatroska v1.3.0
Video
ID : 1
Format : AVC
Format/Info : Advanced Video Codec
Format profile : High@L4.1
Format settings : CABAC / 16 Ref Frames
Format settings, CABAC : Yes
Format settings, RefFrames : 16 frames
Codec ID : V_MPEG4/ISO/AVC
Duration : 4 min 7 s
Bit rate : 1 502 kb/s
Width : 720 pixels
Height : 544 pixels
Display aspect ratio : 4:3
Frame rate mode : Constant
Frame rate : 25.000 FPS
Color space : YUV
Chroma subsampling : 4:2:0
Bit depth : 8 bits
Scan type : Progressive
Bits/(Pixel*Frame) : 0.153
Stream size : 44.3 MiB (85%)
Title : Rip by OS69
Default : Yes
Forced : Yes
Audio
ID : 2
Format : MPEG Audio
Format version : Version 1
Format profile : Layer 2
Codec ID : A_MPEG/L2
Codec ID/Hint : MP2
Duration : 4 min 7 s
Bit rate mode : Constant
Bit rate : 224 kb/s
Channel(s) : 2 channels
Sampling rate : 48.0 kHz
Compression mode : Lossy
Stream size : 6.61 MiB (13%)
Language : English
Default : Yes
Forced : Yes
Скриншоты
07. Don't Walk Away Suzanne (1987)
Видео: x264, 720x544 (4:3), 25 fps, 1648 kbps
Аудио: MP2, 2 ch, 48 kHz, 224 kbps
Продолжительность: 0:03:41
MI
General
Unique ID : 224626485682833784047572175638604757207 (0xA8FD7CCD516859B8B1B77C65EE8738D7)
Complete name : Bad Boys Blue - Video Collection.2005.DVDRip\07. Don't Walk Away Suzanne.mkv
Format : Matroska
Format version : Version 2
File size : 50.3 MiB
Duration : 3 min 40 s
Overall bit rate : 1 910 kb/s
Movie name : Don't Walk Away Suzanne (1987)
Encoded date : UTC 2017-03-05 14:29:20
Writing application : mkvmerge v5.8.0 ('No Sleep / Pillow') built on Sep 2 2012 15:37:04
Writing library : libebml v1.2.3 + libmatroska v1.3.0
Video
ID : 1
Format : AVC
Format/Info : Advanced Video Codec
Format profile : High@L4.1
Format settings : CABAC / 16 Ref Frames
Format settings, CABAC : Yes
Format settings, RefFrames : 16 frames
Codec ID : V_MPEG4/ISO/AVC
Duration : 3 min 40 s
Bit rate : 1 648 kb/s
Width : 720 pixels
Height : 544 pixels
Display aspect ratio : 4:3
Frame rate mode : Constant
Frame rate : 25.000 FPS
Color space : YUV
Chroma subsampling : 4:2:0
Bit depth : 8 bits
Scan type : Progressive
Bits/(Pixel*Frame) : 0.168
Stream size : 43.4 MiB (86%)
Title : Rip by OS69
Default : Yes
Forced : Yes
Audio
ID : 2
Format : MPEG Audio
Format version : Version 1
Format profile : Layer 2
Codec ID : A_MPEG/L2
Codec ID/Hint : MP2
Duration : 3 min 40 s
Bit rate mode : Constant
Bit rate : 224 kb/s
Channel(s) : 2 channels
Sampling rate : 48.0 kHz
Compression mode : Lossy
Stream size : 5.90 MiB (12%)
Language : English
Default : Yes
Forced : Yes
Скриншоты
08. Lovers In The Sand (1987)
Видео: x264, 720x544 (4:3), 25 fps, 1604 kbps
Аудио: MP2, 2 ch, 48 kHz, 224 kbps
Продолжительность: 0:03:29
MI
General
Unique ID : 215148517269537880510471434841753562431 (0xA1DC18E1717BFF4982CE825425AEAD3F)
Complete name : Bad Boys Blue - Video Collection.2005.DVDRip\08. Lovers In The Sand.mkv
Format : Matroska
Format version : Version 2
File size : 46.5 MiB
Duration : 3 min 29 s
Overall bit rate : 1 865 kb/s
Movie name : Lovers In The Sand (1987)
Encoded date : UTC 2017-03-05 14:35:36
Writing application : mkvmerge v5.8.0 ('No Sleep / Pillow') built on Sep 2 2012 15:37:04
Writing library : libebml v1.2.3 + libmatroska v1.3.0
Video
ID : 1
Format : AVC
Format/Info : Advanced Video Codec
Format profile : High@L4.1
Format settings : CABAC / 16 Ref Frames
Format settings, CABAC : Yes
Format settings, RefFrames : 16 frames
Codec ID : V_MPEG4/ISO/AVC
Duration : 3 min 29 s
Bit rate : 1 604 kb/s
Width : 720 pixels
Height : 544 pixels
Display aspect ratio : 4:3
Frame rate mode : Constant
Frame rate : 25.000 FPS
Color space : YUV
Chroma subsampling : 4:2:0
Bit depth : 8 bits
Scan type : Progressive
Bits/(Pixel*Frame) : 0.164
Stream size : 40.0 MiB (86%)
Title : Rip by OS69
Default : Yes
Forced : Yes
Audio
ID : 2
Format : MPEG Audio
Format version : Version 1
Format profile : Layer 2
Codec ID : A_MPEG/L2
Codec ID/Hint : MP2
Duration : 3 min 29 s
Bit rate mode : Constant
Bit rate : 224 kb/s
Channel(s) : 2 channels
Sampling rate : 48.0 kHz
Compression mode : Lossy
Stream size : 5.59 MiB (12%)
Language : English
Default : Yes
Forced : Yes
Скриншоты
09. A World Without You (1988)
Видео: x264, 720x408 (16:9), 25 fps, 1569 kbps
Аудио: MP2, 2 ch, 48 kHz, 224 kbps
Продолжительность: 0:03:17
MI
General
Unique ID : 231241305021015001747669721701152734439 (0xADF7749340FCB408A3955731C6003CE7)
Complete name : Bad Boys Blue - Video Collection.2005.DVDRip\09. A World Without You.mkv
Format : Matroska
Format version : Version 2
File size : 43.0 MiB
Duration : 3 min 16 s
Overall bit rate : 1 830 kb/s
Movie name : A World Without You (1988)
Encoded date : UTC 2017-03-05 14:38:49
Writing application : mkvmerge v5.8.0 ('No Sleep / Pillow') built on Sep 2 2012 15:37:04
Writing library : libebml v1.2.3 + libmatroska v1.3.0
Video
ID : 1
Format : AVC
Format/Info : Advanced Video Codec
Format profile : High@L4.1
Format settings : CABAC / 16 Ref Frames
Format settings, CABAC : Yes
Format settings, RefFrames : 16 frames
Codec ID : V_MPEG4/ISO/AVC
Duration : 3 min 16 s
Bit rate : 1 569 kb/s
Width : 720 pixels
Height : 408 pixels
Display aspect ratio : 16:9
Frame rate mode : Constant
Frame rate : 25.000 FPS
Color space : YUV
Chroma subsampling : 4:2:0
Bit depth : 8 bits
Scan type : Progressive
Bits/(Pixel*Frame) : 0.214
Stream size : 36.8 MiB (86%)
Title : Rip by OS69
Default : Yes
Forced : Yes
Audio
ID : 2
Format : MPEG Audio
Format version : Version 1
Format profile : Layer 2
Codec ID : A_MPEG/L2
Codec ID/Hint : MP2
Duration : 3 min 16 s
Bit rate mode : Constant
Bit rate : 224 kb/s
Channel(s) : 2 channels
Sampling rate : 48.0 kHz
Compression mode : Lossy
Stream size : 5.26 MiB (12%)
Language : English
Default : Yes
Forced : Yes
Скриншоты
10. Hungry For Love (1989)
Видео: x264, 720x416 (1.731:1), 25 fps, 1133 kbps
Аудио: MP2, 2 ch, 48 kHz, 224 kbps
Продолжительность: 0:04:22
MI
General
Unique ID : 173129607839996397322071803308187543936 (0x823F8CB29459AEB7A71A72F7BC1F6980)
Complete name : Bad Boys Blue - Video Collection.2005.DVDRip\10. Hungry For Love.mkv
Format : Matroska
Format version : Version 2
File size : 43.2 MiB
Duration : 4 min 21 s
Overall bit rate : 1 384 kb/s
Movie name : Hungry For Love (1989)
Encoded date : UTC 2017-03-05 14:43:12
Writing application : mkvmerge v5.8.0 ('No Sleep / Pillow') built on Sep 2 2012 15:37:04
Writing library : libebml v1.2.3 + libmatroska v1.3.0
Video
ID : 1
Format : AVC
Format/Info : Advanced Video Codec
Format profile : High@L4.1
Format settings : CABAC / 16 Ref Frames
Format settings, CABAC : Yes
Format settings, RefFrames : 16 frames
Codec ID : V_MPEG4/ISO/AVC
Duration : 4 min 21 s
Bit rate : 1 133 kb/s
Width : 720 pixels
Height : 416 pixels
Display aspect ratio : 1.731
Frame rate mode : Constant
Frame rate : 25.000 FPS
Color space : YUV
Chroma subsampling : 4:2:0
Bit depth : 8 bits
Scan type : Progressive
Bits/(Pixel*Frame) : 0.151
Stream size : 35.4 MiB (82%)
Title : Rip by OS69
Default : Yes
Forced : Yes
Audio
ID : 2
Format : MPEG Audio
Format version : Version 1
Format profile : Layer 2
Codec ID : A_MPEG/L2
Codec ID/Hint : MP2
Duration : 4 min 21 s
Bit rate mode : Constant
Bit rate : 224 kb/s
Channel(s) : 2 channels
Sampling rate : 48.0 kHz
Compression mode : Lossy
Stream size : 7.00 MiB (16%)
Language : English
Default : Yes
Forced : Yes
Скриншоты
11. A Train To Nowhere (1989)
Видео: x264, 720x432 (5:3), 25 fps, 1132 kbps
Аудио: MP2, 2 ch, 48 kHz, 224 kbps
Продолжительность: 0:03:50
MI
General
Unique ID : 249165461244679262803327680037549924849 (0xBB7385B4EAA7785486CAAC745B9261F1)
Complete name : Bad Boys Blue - Video Collection.2005.DVDRip\11. A Train To Nowhere.mkv
Format : Matroska
Format version : Version 2
File size : 37.9 MiB
Duration : 3 min 50 s
Overall bit rate : 1 383 kb/s
Movie name : A Train To Nowhere (1989)
Encoded date : UTC 2017-03-05 14:47:39
Writing application : mkvmerge v5.8.0 ('No Sleep / Pillow') built on Sep 2 2012 15:37:04
Writing library : libebml v1.2.3 + libmatroska v1.3.0
Video
ID : 1
Format : AVC
Format/Info : Advanced Video Codec
Format profile : High@L4.1
Format settings : CABAC / 16 Ref Frames
Format settings, CABAC : Yes
Format settings, RefFrames : 16 frames
Codec ID : V_MPEG4/ISO/AVC
Duration : 3 min 50 s
Bit rate : 1 132 kb/s
Width : 720 pixels
Height : 432 pixels
Display aspect ratio : 5:3
Frame rate mode : Constant
Frame rate : 25.000 FPS
Color space : YUV
Chroma subsampling : 4:2:0
Bit depth : 8 bits
Scan type : Progressive
Bits/(Pixel*Frame) : 0.146
Stream size : 31.0 MiB (82%)
Title : Rip by OS69
Default : Yes
Forced : Yes
Audio
ID : 2
Format : MPEG Audio
Format version : Version 1
Format profile : Layer 2
Codec ID : A_MPEG/L2
Codec ID/Hint : MP2
Duration : 3 min 50 s
Bit rate mode : Constant
Bit rate : 224 kb/s
Channel(s) : 2 channels
Sampling rate : 48.0 kHz
Compression mode : Lossy
Stream size : 6.14 MiB (16%)
Language : English
Default : Yes
Forced : Yes
Скриншоты
12. How I Need You (1990)
Видео: x264, 720x544 (4:3), 25 fps, 2217 kbps
Аудио: MP2, 2 ch, 48 kHz, 224 kbps
Продолжительность: 0:03:23
MI
General
Unique ID : 251556831008792860059096816688418788333 (0xBD401556C937BEA5B09AD1426F1413ED)
Complete name : Bad Boys Blue - Video Collection.2005.DVDRip\12. How I Need You.mkv
Format : Matroska
Format version : Version 2
File size : 60.4 MiB
Duration : 3 min 23 s
Overall bit rate : 2 491 kb/s
Movie name : How I Need You (1990)
Encoded date : UTC 2017-03-05 14:51:12
Writing application : mkvmerge v5.8.0 ('No Sleep / Pillow') built on Sep 2 2012 15:37:04
Writing library : libebml v1.2.3 + libmatroska v1.3.0
Video
ID : 1
Format : AVC
Format/Info : Advanced Video Codec
Format profile : High@L4.1
Format settings : CABAC / 16 Ref Frames
Format settings, CABAC : Yes
Format settings, RefFrames : 16 frames
Codec ID : V_MPEG4/ISO/AVC
Duration : 3 min 23 s
Bit rate : 2 217 kb/s
Width : 720 pixels
Height : 544 pixels
Display aspect ratio : 4:3
Frame rate mode : Constant
Frame rate : 25.000 FPS
Color space : YUV
Chroma subsampling : 4:2:0
Bit depth : 8 bits
Scan type : Progressive
Bits/(Pixel*Frame) : 0.226
Stream size : 53.8 MiB (89%)
Title : Rip by OS69
Default : Yes
Forced : Yes
Audio
ID : 2
Format : MPEG Audio
Format version : Version 1
Format profile : Layer 2
Codec ID : A_MPEG/L2
Codec ID/Hint : MP2
Duration : 3 min 23 s
Bit rate mode : Constant
Bit rate : 224 kb/s
Channel(s) : 2 channels
Sampling rate : 48.0 kHz
Compression mode : Lossy
Stream size : 5.43 MiB (9%)
Language : English
Default : Yes
Forced : Yes
Скриншоты
13. Queen Of Hearts (1990)
Видео: x264, 720x472 (3:2), 25 fps, 1312 kbps
Аудио: MP2, 2 ch, 48 kHz, 224 kbps
Продолжительность: 0:04:05
MI
General
Unique ID : 173397211838832207487613617577847111975 (0x82731697E75853E0B205A4C17E1F4127)
Complete name : Bad Boys Blue - Video Collection.2005.DVDRip\13. Queen Of Hearts.mkv
Format : Matroska
Format version : Version 2
File size : 45.8 MiB
Duration : 4 min 5 s
Overall bit rate : 1 567 kb/s
Movie name : Queen Of Hearts (1990)
Encoded date : UTC 2017-03-05 14:55:03
Writing application : mkvmerge v5.8.0 ('No Sleep / Pillow') built on Sep 2 2012 15:37:04
Writing library : libebml v1.2.3 + libmatroska v1.3.0
Video
ID : 1
Format : AVC
Format/Info : Advanced Video Codec
Format profile : High@L4.1
Format settings : CABAC / 16 Ref Frames
Format settings, CABAC : Yes
Format settings, RefFrames : 16 frames
Codec ID : V_MPEG4/ISO/AVC
Duration : 4 min 5 s
Bit rate : 1 312 kb/s
Width : 720 pixels
Height : 472 pixels
Display aspect ratio : 3:2
Frame rate mode : Constant
Frame rate : 25.000 FPS
Color space : YUV
Chroma subsampling : 4:2:0
Bit depth : 8 bits
Scan type : Progressive
Bits/(Pixel*Frame) : 0.154
Stream size : 38.4 MiB (84%)
Title : Rip by OS69
Default : Yes
Forced : Yes
Audio
ID : 2
Format : MPEG Audio
Format version : Version 1
Format profile : Layer 2
Codec ID : A_MPEG/L2
Codec ID/Hint : MP2
Duration : 4 min 5 s
Bit rate mode : Constant
Bit rate : 224 kb/s
Channel(s) : 2 channels
Sampling rate : 48.0 kHz
Compression mode : Lossy
Stream size : 6.55 MiB (14%)
Language : English
Default : Yes
Forced : Yes
Скриншоты
14. Save Your Love (1992)
Видео: x264, 720x544 (4:3), 25 fps, 2290 kbps
Аудио: MP2, 2 ch, 48 kHz, 224 kbps
Продолжительность: 0:04:00
MI
General
Unique ID : 223174479169778895481351173549746482287 (0xA7E5D75A8FC49F39BE617838A56AEC6F)
Complete name : Bad Boys Blue - Video Collection.2005.DVDRip\14. Save Your Love.mkv
Format : Matroska
Format version : Version 2
File size : 73.3 MiB
Duration : 3 min 59 s
Overall bit rate : 2 565 kb/s
Movie name : Save Your Love (1992)
Encoded date : UTC 2017-03-05 15:00:49
Writing application : mkvmerge v5.8.0 ('No Sleep / Pillow') built on Sep 2 2012 15:37:04
Writing library : libebml v1.2.3 + libmatroska v1.3.0
Video
ID : 1
Format : AVC
Format/Info : Advanced Video Codec
Format profile : High@L4.1
Format settings : CABAC / 16 Ref Frames
Format settings, CABAC : Yes
Format settings, RefFrames : 16 frames
Codec ID : V_MPEG4/ISO/AVC
Duration : 3 min 59 s
Bit rate : 2 290 kb/s
Width : 720 pixels
Height : 544 pixels
Display aspect ratio : 4:3
Frame rate mode : Constant
Frame rate : 25.000 FPS
Color space : YUV
Chroma subsampling : 4:2:0
Bit depth : 8 bits
Scan type : Progressive
Bits/(Pixel*Frame) : 0.234
Stream size : 65.4 MiB (89%)
Title : Rip by OS69
Default : Yes
Forced : Yes
Audio
ID : 2
Format : MPEG Audio
Format version : Version 1
Format profile : Layer 2
Codec ID : A_MPEG/L2
Codec ID/Hint : MP2
Duration : 3 min 59 s
Bit rate mode : Constant
Bit rate : 224 kb/s
Channel(s) : 2 channels
Sampling rate : 48.0 kHz
Compression mode : Lossy
Stream size : 6.40 MiB (9%)
Language : English
Default : Yes
Forced : Yes
Скриншоты
15. You're A Woman '98 (1998)
Видео: x264, 720x448 (16:10), 25 fps, 1632 kbps
Аудио: MP2, 2 ch, 48 kHz, 224 kbps
Продолжительность: 0:03:19
MI
General
Unique ID : 254695404847712395396069443024195433891 (0xBF9C8CF9FB141D12BB402263D4DC35A3)
Complete name : Bad Boys Blue - Video Collection.2005.DVDRip\15. You're A Woman '98.mkv
Format : Matroska
Format version : Version 2
File size : 44.9 MiB
Duration : 3 min 18 s
Overall bit rate : 1 894 kb/s
Movie name : You're A Woman '98 (1998)
Encoded date : UTC 2017-03-05 15:02:46
Writing application : mkvmerge v5.8.0 ('No Sleep / Pillow') built on Sep 2 2012 15:37:04
Writing library : libebml v1.2.3 + libmatroska v1.3.0
Video
ID : 1
Format : AVC
Format/Info : Advanced Video Codec
Format profile : High@L4.1
Format settings : CABAC / 16 Ref Frames
Format settings, CABAC : Yes
Format settings, RefFrames : 16 frames
Codec ID : V_MPEG4/ISO/AVC
Duration : 3 min 18 s
Bit rate : 1 632 kb/s
Width : 720 pixels
Height : 448 pixels
Display aspect ratio : 16:10
Frame rate mode : Constant
Frame rate : 25.000 FPS
Color space : YUV
Chroma subsampling : 4:2:0
Bit depth : 8 bits
Scan type : Progressive
Bits/(Pixel*Frame) : 0.202
Stream size : 38.7 MiB (86%)
Title : Rip by OS69
Default : Yes
Forced : Yes
Audio
ID : 2
Format : MPEG Audio
Format version : Version 1
Format profile : Layer 2
Codec ID : A_MPEG/L2
Codec ID/Hint : MP2
Duration : 3 min 18 s
Bit rate mode : Constant
Bit rate : 224 kb/s
Channel(s) : 2 channels
Sampling rate : 48.0 kHz
Compression mode : Lossy
Stream size : 5.31 MiB (12%)
Language : English
Default : Yes
Forced : Yes
Скриншоты
16. The Turbomegamix '98 (1998)
Видео: x264, 720x376 (1.915:1), 25 fps, 1465 kbps
Аудио: MP2, 2 ch, 48 kHz, 224 kbps
Продолжительность: 0:03:45
MI
General
Unique ID : 253208606481651422899454286983686814296 (0xBE7E34284D46F52982296ED873A87A58)
Complete name : Bad Boys Blue - Video Collection.2005.DVDRip\16. The Turbomegamix '98.mkv
Format : Matroska
Format version : Version 2
File size : 46.2 MiB
Duration : 3 min 44 s
Overall bit rate : 1 724 kb/s
Movie name : The Turbomegamix '98 (1998)
Encoded date : UTC 2017-03-05 15:07:43
Writing application : mkvmerge v5.8.0 ('No Sleep / Pillow') built on Sep 2 2012 15:37:04
Writing library : libebml v1.2.3 + libmatroska v1.3.0
Video
ID : 1
Format : AVC
Format/Info : Advanced Video Codec
Format profile : High@L4.1
Format settings : CABAC / 16 Ref Frames
Format settings, CABAC : Yes
Format settings, RefFrames : 16 frames
Codec ID : V_MPEG4/ISO/AVC
Duration : 3 min 44 s
Bit rate : 1 465 kb/s
Width : 720 pixels
Height : 376 pixels
Display aspect ratio : 1.915
Frame rate mode : Constant
Frame rate : 25.000 FPS
Color space : YUV
Chroma subsampling : 4:2:0
Bit depth : 8 bits
Scan type : Progressive
Bits/(Pixel*Frame) : 0.216
Stream size : 39.2 MiB (85%)
Title : Rip by OS69
Default : Yes
Forced : Yes
Audio
ID : 2
Format : MPEG Audio
Format version : Version 1
Format profile : Layer 2
Codec ID : A_MPEG/L2
Codec ID/Hint : MP2
Duration : 3 min 44 s
Bit rate mode : Constant
Bit rate : 224 kb/s
Channel(s) : 2 channels
Sampling rate : 48.0 kHz
Compression mode : Lossy
Stream size : 6.00 MiB (13%)
Language : English
Default : Yes
Forced : Yes
Скриншоты
Download
Чтобы скачать .torrent файл необходима регистрация
Сайт не распространяет и не хранит электронные версии произведений, а лишь предоставляет доступ к создаваемому пользователями каталогу ссылок на торрент-файлы, которые содержат только списки хеш-сумм
[Профиль]  [ЛС] 
 
Ответить
Loading...
Error