Адрес РуТрекера для пользователей РФ - MainTracker.org

Расскажи друзьям:  

US Open 2017 / Финал / Рафаэль Надаль (Испания) - Кевин Андерсон (ЮАР) / [1] Rafael NADAL ESP - [28] Kevin ANDERSON RSA / Eurosport HD [10.09.2017, Теннис, HDTV/1080i, TS/H.264, RU/EN] скачать через торрент

Страницы:  1

Ответить
Автор
Сообщение

Злобный Санчез

Стаж: 7 лет 2 месяца

Сообщений: 8716


Злобный Санчез · 11-Сен-17 03:04 (2 месяца 9 дней назад)

US Open 2017. Финал
[1] Rafael NADAL ESP - [28] Kevin ANDERSON RSA

Дата эфира: 10.09.2017
Вид спорта: Теннис
Комментарий: Профессиональный
Язык комментариев: Русский (Ташев, Чакветадзе) / Английский
Описание: US Open 2017 / Финал / Рафаэль Надаль (Испания) - Кевин Андерсон (ЮАР).
Без превью. Награждение присутствует.
Автор рипа: Злобный Санчез
Качество: HDTV
Формат: TS
Видео кодек: H.264
Аудио кодек: MP2
Видео: MPEG4 Video (H264) 1920x1080 (16:9) 25fps 8867kbps
Аудио 1: MPEG Audio 48000Hz stereo 192kbps (Русский)
Аудио 2: MPEG Audio 48000Hz stereo 192kbps (Английский)
Скриншоты
Media Info
General
ID : 1 (0x1)
Complete name : W:\раздачи\US Open 2017. Финал. [1] Rafael NADAL ESP - [28] Kevin ANDERSON RSA. Злобный Санчез.ts
Format : MPEG-TS
File size : 11.0 GiB
Duration : 2 h 41 min
Overall bit rate mode : Variable
Overall bit rate : 9 736 kb/s
Video
ID : 301 (0x12D)
Menu ID : 26001 (0x6591)
Format : AVC
Format/Info : Advanced Video Codec
Format profile : High@L4
Format settings, CABAC : Yes
Format settings, RefFrames : 4 frames
Codec ID : 27
Duration : 2 h 41 min
Bit rate : 8 867 kb/s
Width : 1 920 pixels
Height : 1 080 pixels
Display aspect ratio : 16:9
Frame rate : 25.000 FPS
Standard : Component
Color space : YUV
Chroma subsampling : 4:2:0
Bit depth : 8 bits
Scan type : Interlaced
Scan type, store method : Separated fields
Scan order : Top Field First
Bits/(Pixel*Frame) : 0.171
Stream size : 10.0 GiB (91%)
Color range : Limited
Color primaries : BT.709
Transfer characteristics : BT.709
Matrix coefficients : BT.709
Audio #1
ID : 401 (0x191)
Menu ID : 26001 (0x6591)
Format : MPEG Audio
Format version : Version 1
Format profile : Layer 2
Codec ID : 3
Duration : 2 h 41 min
Bit rate mode : Constant
Bit rate : 192 kb/s
Channel(s) : 2 channels
Sampling rate : 48.0 kHz
Compression mode : Lossy
Delay relative to video : -40 ms
Stream size : 222 MiB (2%)
Language : Russian
Audio #2
ID : 402 (0x192)
Menu ID : 26001 (0x6591)
Format : MPEG Audio
Format version : Version 1
Format profile : Layer 2
Codec ID : 3
Duration : 2 h 41 min
Bit rate mode : Constant
Bit rate : 192 kb/s
Channel(s) : 2 channels
Sampling rate : 48.0 kHz
Compression mode : Lossy
Delay relative to video : -40 ms
Stream size : 222 MiB (2%)
Language : English
Продолжительность
02:41:37
Счёт
[1] Rafael NADAL ESP - [28] Kevin ANDERSON RSA
6-3, 6-3, 6-4
Download
Чтобы скачать .torrent файл необходима регистрация
Сайт не распространяет и не хранит электронные версии произведений, а лишь предоставляет доступ к создаваемому пользователями каталогу ссылок на торрент-файлы, которые содержат только списки хеш-сумм
[Профиль]  [ЛС] 

leonid-1984

Стаж: 6 лет 1 месяц

Сообщений: 2


leonid-1984 · 11-Сен-17 13:34 (спустя 10 часов)

[Цитировать] 

Спасибо!
[Профиль]  [ЛС] 
 
Ответить
Loading...
Error