Адрес РуТрекера для пользователей РФ - MainTracker.org

Расскажи друзьям:  

Айдамир и Анжелика (Айдамир Эльдаров и Анжелика Начесова) [2007, Pop, DVD5] скачать через торрент

Страницы:  1

Ответить
Автор
Сообщение

Svyturys5

Стаж: 5 лет

Сообщений: 703


Svyturys5 · 10-Май-14 00:22 (3 года 6 месяцев назад, ред. 10-Май-14 08:25)

Айдамир и Анжелика
Страна: Россия
Жанр: Pop
Продолжительность: 01:34:13
Год выпуска: 2007 г.
Лейбл: ООО "Звук-М"
Описание: От производителя
Одним из ярких музыкальных событий на Северном Кавказе являлся концерт под названием "Айдамир и Анжелика", который состоялся в городе Нальчике. Перед публикой выступили молодые талантливые исполнители, входящие в плеяду самых популярных артистов Северного Кавказа. В концертной программе прозвучали как уже известные песни, снискавшие любовь и признание публики, так и новые композиции. Творчество каждого артиста, принявшего участие в концерте, безусловно, индивидуально и многопланово. Но объединяющей темой их выступления является любовь. Кого-то она окрыляет, а кто-то сгорает во всепоглощающем любовном огне. Хитросплетения жизни, истории о любви, предательстве, ошибках, забвении - все это прозвучит в песнях артистов. Невозможно отрицать той эмоциональной насыщенности, заряда бодрости и энергии, молодого задора, которыми исполнители щедро делятся с публикой.
Волшебные лирические мелодии, наполненные национальным колоритом, гармонично сочетаются со стихами, превращаясь в прекрасные песни, дополненные причудливым узором национального танца. Каждую композицию можно сравнить с глотком хрустальной воды из чистого источника. Необходимо также отметить высокое исполнительское мастерство всех артистов, музыкантов, танцоров, принявших участие в концерте.
В программе сочетаются вокальный и танцевальный жанры. Убеждены, что среди публики не найдется ни одного человека, который остался бы равнодушным, посмотрев этот концерт.
Треклист:
01. Айдамир & Анжелика - Без тебя
02. Анжелика - Ай-яй-яй
03. Анжелика - Задыхаюсь
04. Айдамир - Радость стучится в ворота
05. Айдамир - Бэла
06. Айдамир - Сэтэней
07. Аслан Тлебзу - Песня джигита
08. Анжелика - Азамат
09. Анжелика - Никто
10. Айдамир - Сердце
11. Айдамир - Каюсь
12. Айдамир - Ягода в меду
13. Малыш - Богиня
14. Группа "Arthurs" - Месяц
15. Айдамир - Пустыня любви
16. Айдамир, Анжелика и Аслан Тлебзу - Нежные руки
17. Аслан Тлебзу - Горцы
18. Анжелика - Черная печь
19. Анжелика - Огонь и лед
20. Айдамир - Хожу хмельной
21. Айдамир- Девушка Кавказа
22. Айдамир & Анжелика - Без тебя
Доп. информация:
http://www.ozon.ru/context/detail/id/3358738/?item=3356316
Скачавших, просьба оставаться на раздаче, я уйду с таковой удалив у себя оригинал.
Разбивка на главы по трекам: есть
Качество : DVD5
Формат: DVD video
Видео кодек: MPEG2
Аудио кодек: AC3
Видео: PAL 4:3 (720x576) VBR
Аудио: Not specified (Dolby AC3, 2 ch)(L,R) ch, 192 kbps, Delay 0 mSec
DVDinfo
Полное имя                               : D:\Razdaca\Айдамир и Анжелика\VIDEO_TS\VIDEO_TS.BUP
Формат : DVD Video
Профиль формата : Menu
Размер файла : 14,0 Кбайт
Режим общего битрейта : Переменный
Видео
Идентификатор : 224 (0xE0)
Формат : MPEG Video
Версия формата : Version 2
Вид битрейта : Переменный
Ширина : 720 пикселей
Высота : 576 пикселей
Соотношение сторон : 4:3
Частота кадров : 25,000 кадров/сек
Стандарт вещания : PAL
Метод сжатия : С потерями
Аудио
Формат : PCM
Каналы : 2 канала
Частота : 48,0 КГц
Текст
Формат : RLE
Формат/Информация : Run-length encoding
Битовая глубина : 2 бит
Общее
Полное имя : D:\Razdaca\Айдамир и Анжелика\VIDEO_TS\VIDEO_TS.IFO
Формат : DVD Video
Профиль формата : Menu
Размер файла : 14,0 Кбайт
Режим общего битрейта : Переменный
Видео
Идентификатор : 224 (0xE0)
Формат : MPEG Video
Версия формата : Version 2
Вид битрейта : Переменный
Ширина : 720 пикселей
Высота : 576 пикселей
Соотношение сторон : 4:3
Частота кадров : 25,000 кадров/сек
Стандарт вещания : PAL
Метод сжатия : С потерями
Аудио
Формат : PCM
Каналы : 2 канала
Частота : 48,0 КГц
Текст
Формат : RLE
Формат/Информация : Run-length encoding
Битовая глубина : 2 бит
Общее
Полное имя : D:\Razdaca\Айдамир и Анжелика\VIDEO_TS\VIDEO_TS.VOB
Формат : MPEG-PS
Размер файла : 288 Кбайт
Продолжительность : 1 с. 240 мс.
Режим общего битрейта : Переменный
Общий поток : 1903 Кбит/сек
Видео
Идентификатор : 224 (0xE0)
Формат : MPEG Video
Версия формата : Version 2
Профиль формата : Main@Main
Параметр BVOP формата : Нет
Параметр матрицы формата : По умолчанию
Параметр GOP формата : N=1
Продолжительность : 1 с. 240 мс.
Вид битрейта : Переменный
Битрейт : 1865 Кбит/сек
Максимальный битрейт : 8000 Кбит/сек
Ширина : 720 пикселей
Высота : 576 пикселей
Соотношение сторон : 4:3
Частота кадров : 25,000 кадров/сек
Стандарт вещания : PAL
Цветовое пространство : YUV
Субдискретизация насыщенности : 4:2:0
Битовая глубина : 8 бит
Тип развёртки : Чересстрочная
Порядок развёртки : Нижнее поле первое
Метод сжатия : С потерями
Бит/(Пиксели*Кадры) : 0.180
Размер потока : 282 Кбайт (98%)
Основные цвета : BT.601 PAL
Характеристики трансфера : BT.470 System B, BT.470 System G
Коэффициенты матрицы : BT.601
Меню
Общее
Полное имя : D:\Razdaca\Айдамир и Анжелика\VIDEO_TS\VTS_01_0.BUP
Формат : DVD Video
Профиль формата : Program
Размер файла : 32,0 Кбайт
Продолжительность : 23 с.
Режим общего битрейта : Переменный
Общий поток : 11,0 Кбит/сек
Видео
Идентификатор : 224 (0xE0)
Формат : MPEG Video
Версия формата : Version 2
Продолжительность : 23 с.
Вид битрейта : Переменный
Ширина : 720 пикселей
Высота : 576 пикселей
Соотношение сторон : 4:3
Частота кадров : 25,000 кадров/сек
Стандарт вещания : PAL
Метод сжатия : С потерями
Аудио
Идентификатор : 128 (0x80)
Формат : AC-3
Формат/Информация : Audio Coding 3
Продолжительность : 23 с.
Каналы : 2 канала
Частота : 48,0 КГц
Метод сжатия : С потерями
Меню
Продолжительность : 23 с.
00:00:00.000 : Chapter 1
List (Audio) : 0
Общее
Полное имя : D:\Razdaca\Айдамир и Анжелика\VIDEO_TS\VTS_01_0.IFO
Формат : DVD Video
Профиль формата : Program
Размер файла : 32,0 Кбайт
Продолжительность : 23 с.
Режим общего битрейта : Переменный
Общий поток : 11,0 Кбит/сек
Видео
Идентификатор : 224 (0xE0)
Формат : MPEG Video
Версия формата : Version 2
Продолжительность : 23 с.
Вид битрейта : Переменный
Ширина : 720 пикселей
Высота : 576 пикселей
Соотношение сторон : 4:3
Частота кадров : 25,000 кадров/сек
Стандарт вещания : PAL
Метод сжатия : С потерями
Аудио
Идентификатор : 128 (0x80)
Формат : AC-3
Формат/Информация : Audio Coding 3
Продолжительность : 23 с.
Каналы : 2 канала
Частота : 48,0 КГц
Метод сжатия : С потерями
Меню
Продолжительность : 23 с.
00:00:00.000 : Chapter 1
List (Audio) : 0
Общее
Полное имя : D:\Razdaca\Айдамир и Анжелика\VIDEO_TS\VTS_01_0.VOB
Формат : MPEG-PS
Размер файла : 112 Мбайт
Продолжительность : 25 с.
Режим общего битрейта : Переменный
Общий поток : 37,4 Мбит/сек
Видео
Идентификатор : 224 (0xE0)
Формат : MPEG Video
Версия формата : Version 2
Профиль формата : Main@Main
Параметр BVOP формата : Да
Параметр матрицы формата : По умолчанию
Параметр GOP формата : M=3, N=12
Продолжительность : 24 с.
Вид битрейта : Переменный
Битрейт : 36,5 Мбит/сек
Максимальный битрейт : 8490 Кбит/сек
Ширина : 720 пикселей
Высота : 576 пикселей
Соотношение сторон : 4:3
Частота кадров : 25,000 кадров/сек
Стандарт вещания : PAL
Цветовое пространство : YUV
Субдискретизация насыщенности : 4:2:0
Битовая глубина : 8 бит
Тип развёртки : Прогрессивная
Метод сжатия : С потерями
Бит/(Пиксели*Кадры) : 3.519
Размер потока : 108 Мбайт (97%)
Аудио
Идентификатор : 189 (0xBD)-128 (0x80)
Формат : AC-3
Формат/Информация : Audio Coding 3
Расширение режима : CM (complete main)
Параметр Endianness формата : Big
Режим смешивания : DVD-Video
Продолжительность : 25 с.
Вид битрейта : Постоянный
Битрейт : 192 Кбит/сек
Каналы : 2 канала
Расположение каналов : Front: L R
Частота : 48,0 КГц
Битовая глубина : 16 бит
Метод сжатия : С потерями
Задержка видео : -80 мс.
Размер потока : 587 Кбайт (1%)
Текст
Идентификатор : 189 (0xBD)-32 (0x20)
Формат : RLE
Формат/Информация : Run-length encoding
Режим смешивания : DVD-Video
Задержка видео : -80 мс.
Меню
Общее
Полное имя : D:\Razdaca\Айдамир и Анжелика\VIDEO_TS\VTS_01_1.VOB
Формат : MPEG-PS
Размер файла : 12,3 Мбайт
Продолжительность : 23 с.
Режим общего битрейта : Переменный
Общий поток : 4453 Кбит/сек
Видео
Идентификатор : 224 (0xE0)
Формат : MPEG Video
Версия формата : Version 2
Профиль формата : Main@Main
Параметр BVOP формата : Да
Параметр матрицы формата : По умолчанию
Параметр GOP формата : M=3, N=12
Продолжительность : 23 с.
Вид битрейта : Переменный
Битрейт : 4172 Кбит/сек
Максимальный битрейт : 8490 Кбит/сек
Ширина : 720 пикселей
Высота : 576 пикселей
Соотношение сторон : 4:3
Частота кадров : 25,000 кадров/сек
Стандарт вещания : PAL
Цветовое пространство : YUV
Субдискретизация насыщенности : 4:2:0
Битовая глубина : 8 бит
Тип развёртки : Чересстрочная
Порядок развёртки : Нижнее поле первое
Метод сжатия : С потерями
Бит/(Пиксели*Кадры) : 0.402
Размер потока : 11,5 Мбайт (93%)
Аудио
Идентификатор : 189 (0xBD)-128 (0x80)
Формат : AC-3
Формат/Информация : Audio Coding 3
Расширение режима : CM (complete main)
Параметр Endianness формата : Big
Режим смешивания : DVD-Video
Продолжительность : 23 с.
Вид битрейта : Постоянный
Битрейт : 192 Кбит/сек
Каналы : 2 канала
Расположение каналов : Front: L R
Частота : 48,0 КГц
Битовая глубина : 16 бит
Метод сжатия : С потерями
Задержка видео : -80 мс.
Размер потока : 545 Кбайт (4%)
Меню
Общее
Полное имя : D:\Razdaca\Айдамир и Анжелика\VIDEO_TS\VTS_02_0.BUP
Формат : DVD Video
Профиль формата : Program
Размер файла : 56,0 Кбайт
Продолжительность : 1 ч. 34 м.
Режим общего битрейта : Переменный
Общий поток : 81 бит/сек
Видео
Идентификатор : 224 (0xE0)
Формат : MPEG Video
Версия формата : Version 2
Продолжительность : 1 ч. 34 м.
Вид битрейта : Переменный
Ширина : 720 пикселей
Высота : 576 пикселей
Соотношение сторон : 4:3
Частота кадров : 25,000 кадров/сек
Стандарт вещания : PAL
Метод сжатия : С потерями
Аудио
Идентификатор : 128 (0x80)
Формат : AC-3
Формат/Информация : Audio Coding 3
Продолжительность : 1 ч. 34 м.
Каналы : 2 канала
Частота : 48,0 КГц
Метод сжатия : С потерями
Меню
Продолжительность : 1 ч. 34 м.
00:00:00.000 : Chapter 1
00:00:19.200 : Chapter 2
00:04:45.520 : Chapter 3
00:05:20.320 : Chapter 4
00:08:26.520 : Chapter 5
00:08:55.080 : Chapter 6
00:12:31.120 : Chapter 7
00:15:33.840 : Chapter 8
00:16:05.320 : Chapter 9
00:19:46.120 : Chapter 10
00:20:05.560 : Chapter 11
00:24:41.280 : Chapter 12
00:28:55.720 : Chapter 13
00:29:29.360 : Chapter 14
00:32:54.880 : Chapter 15
00:33:13.560 : Chapter 16
00:37:30.320 : Chapter 17
00:41:44.640 : Chapter 18
00:45:33.960 : Chapter 19
00:46:10.960 : Chapter 20
00:51:01.000 : Chapter 21
00:54:06.600 : Chapter 22
00:56:48.760 : Chapter 23
00:57:44.280 : Chapter 24
01:01:51.720 : Chapter 25
01:05:29.840 : Chapter 26
01:05:58.600 : Chapter 27
01:11:08.680 : Chapter 28
01:11:24.040 : Chapter 29
01:16:16.920 : Chapter 30
01:19:42.720 : Chapter 31
01:24:57.240 : Chapter 32
01:29:17.520 : Chapter 33
List (Audio) : 0
Общее
Полное имя : D:\Razdaca\Айдамир и Анжелика\VIDEO_TS\VTS_02_0.IFO
Формат : DVD Video
Профиль формата : Program
Размер файла : 56,0 Кбайт
Продолжительность : 1 ч. 34 м.
Режим общего битрейта : Переменный
Общий поток : 81 бит/сек
Видео
Идентификатор : 224 (0xE0)
Формат : MPEG Video
Версия формата : Version 2
Продолжительность : 1 ч. 34 м.
Вид битрейта : Переменный
Ширина : 720 пикселей
Высота : 576 пикселей
Соотношение сторон : 4:3
Частота кадров : 25,000 кадров/сек
Стандарт вещания : PAL
Метод сжатия : С потерями
Аудио
Идентификатор : 128 (0x80)
Формат : AC-3
Формат/Информация : Audio Coding 3
Продолжительность : 1 ч. 34 м.
Каналы : 2 канала
Частота : 48,0 КГц
Метод сжатия : С потерями
Меню
Продолжительность : 1 ч. 34 м.
00:00:00.000 : Chapter 1
00:00:19.200 : Chapter 2
00:04:45.520 : Chapter 3
00:05:20.320 : Chapter 4
00:08:26.520 : Chapter 5
00:08:55.080 : Chapter 6
00:12:31.120 : Chapter 7
00:15:33.840 : Chapter 8
00:16:05.320 : Chapter 9
00:19:46.120 : Chapter 10
00:20:05.560 : Chapter 11
00:24:41.280 : Chapter 12
00:28:55.720 : Chapter 13
00:29:29.360 : Chapter 14
00:32:54.880 : Chapter 15
00:33:13.560 : Chapter 16
00:37:30.320 : Chapter 17
00:41:44.640 : Chapter 18
00:45:33.960 : Chapter 19
00:46:10.960 : Chapter 20
00:51:01.000 : Chapter 21
00:54:06.600 : Chapter 22
00:56:48.760 : Chapter 23
00:57:44.280 : Chapter 24
01:01:51.720 : Chapter 25
01:05:29.840 : Chapter 26
01:05:58.600 : Chapter 27
01:11:08.680 : Chapter 28
01:11:24.040 : Chapter 29
01:16:16.920 : Chapter 30
01:19:42.720 : Chapter 31
01:24:57.240 : Chapter 32
01:29:17.520 : Chapter 33
List (Audio) : 0
Общее
Полное имя : D:\Razdaca\Айдамир и Анжелика\VIDEO_TS\VTS_02_1.VOB
Формат : MPEG-PS
Размер файла : 1000 Мбайт
Продолжительность : 22 м.
Режим общего битрейта : Переменный
Общий поток : 6245 Кбит/сек
Видео
Идентификатор : 224 (0xE0)
Формат : MPEG Video
Версия формата : Version 2
Профиль формата : Main@Main
Параметр BVOP формата : Да
Параметр матрицы формата : Выборочная
Параметр GOP формата : M=3, N=15
Продолжительность : 22 м.
Вид битрейта : Переменный
Битрейт : 5929 Кбит/сек
Максимальный битрейт : 9800 Кбит/сек
Ширина : 720 пикселей
Высота : 576 пикселей
Соотношение сторон : 4:3
Частота кадров : 25,000 кадров/сек
Стандарт вещания : PAL
Цветовое пространство : YUV
Субдискретизация насыщенности : 4:2:0
Битовая глубина : 8 бит
Тип развёртки : Чересстрочная
Порядок развёртки : Верхнее поле первое
Метод сжатия : С потерями
Бит/(Пиксели*Кадры) : 0.572
Размер потока : 949 Мбайт (95%)
Аудио
Идентификатор : 189 (0xBD)-128 (0x80)
Формат : AC-3
Формат/Информация : Audio Coding 3
Расширение режима : CM (complete main)
Параметр Endianness формата : Big
Режим смешивания : DVD-Video
Продолжительность : 22 м.
Вид битрейта : Постоянный
Битрейт : 192 Кбит/сек
Каналы : 2 канала
Расположение каналов : Front: L R
Частота : 48,0 КГц
Битовая глубина : 16 бит
Метод сжатия : С потерями
Размер потока : 30,7 Мбайт (3%)
Меню
Общее
Полное имя : D:\Razdaca\Айдамир и Анжелика\VIDEO_TS\VTS_02_2.VOB
Формат : MPEG-PS
Размер файла : 1000 Мбайт
Продолжительность : 24 м.
Режим общего битрейта : Переменный
Общий поток : 5632 Кбит/сек
Видео
Идентификатор : 224 (0xE0)
Формат : MPEG Video
Версия формата : Version 2
Профиль формата : Main@Main
Параметр BVOP формата : Да
Параметр матрицы формата : Выборочная
Параметр GOP формата : M=3, N=15
Продолжительность : 24 м.
Вид битрейта : Переменный
Битрейт : 5328 Кбит/сек
Максимальный битрейт : 9800 Кбит/сек
Ширина : 720 пикселей
Высота : 576 пикселей
Соотношение сторон : 4:3
Частота кадров : 25,000 кадров/сек
Стандарт вещания : PAL
Цветовое пространство : YUV
Субдискретизация насыщенности : 4:2:0
Битовая глубина : 8 бит
Тип развёртки : Чересстрочная
Порядок развёртки : Верхнее поле первое
Метод сжатия : С потерями
Бит/(Пиксели*Кадры) : 0.514
Размер потока : 946 Мбайт (95%)
Аудио
Идентификатор : 189 (0xBD)-128 (0x80)
Формат : AC-3
Формат/Информация : Audio Coding 3
Расширение режима : CM (complete main)
Параметр Endianness формата : Big
Режим смешивания : DVD-Video
Продолжительность : 24 м.
Вид битрейта : Постоянный
Битрейт : 192 Кбит/сек
Каналы : 2 канала
Расположение каналов : Front: L R
Частота : 48,0 КГц
Битовая глубина : 16 бит
Метод сжатия : С потерями
Задержка видео : -352 мс.
Размер потока : 34,1 Мбайт (3%)
Меню
Общее
Полное имя : D:\Razdaca\Айдамир и Анжелика\VIDEO_TS\VTS_02_3.VOB
Формат : MPEG-PS
Размер файла : 1000 Мбайт
Продолжительность : 23 м.
Режим общего битрейта : Переменный
Общий поток : 6036 Кбит/сек
Видео
Идентификатор : 224 (0xE0)
Формат : MPEG Video
Версия формата : Version 2
Профиль формата : Main@Main
Параметр BVOP формата : Да
Параметр матрицы формата : Выборочная
Параметр GOP формата : M=3, N=15
Продолжительность : 23 м.
Вид битрейта : Переменный
Битрейт : 5724 Кбит/сек
Максимальный битрейт : 9800 Кбит/сек
Ширина : 720 пикселей
Высота : 576 пикселей
Соотношение сторон : 4:3
Частота кадров : 25,000 кадров/сек
Стандарт вещания : PAL
Цветовое пространство : YUV
Субдискретизация насыщенности : 4:2:0
Битовая глубина : 8 бит
Тип развёртки : Чересстрочная
Порядок развёртки : Верхнее поле первое
Метод сжатия : С потерями
Бит/(Пиксели*Кадры) : 0.552
Размер потока : 948 Мбайт (95%)
Аудио
Идентификатор : 189 (0xBD)-128 (0x80)
Формат : AC-3
Формат/Информация : Audio Coding 3
Расширение режима : CM (complete main)
Параметр Endianness формата : Big
Режим смешивания : DVD-Video
Продолжительность : 23 м.
Вид битрейта : Постоянный
Битрейт : 192 Кбит/сек
Каналы : 2 канала
Расположение каналов : Front: L R
Частота : 48,0 КГц
Битовая глубина : 16 бит
Метод сжатия : С потерями
Задержка видео : -344 мс.
Размер потока : 31,8 Мбайт (3%)
Меню
Общее
Полное имя : D:\Razdaca\Айдамир и Анжелика\VIDEO_TS\VTS_02_4.VOB
Формат : MPEG-PS
Размер файла : 1000 Мбайт
Продолжительность : 22 м.
Режим общего битрейта : Переменный
Общий поток : 6241 Кбит/сек
Видео
Идентификатор : 224 (0xE0)
Формат : MPEG Video
Версия формата : Version 2
Профиль формата : Main@Main
Параметр BVOP формата : Да
Параметр матрицы формата : Выборочная
Параметр GOP формата : M=3, N=15
Продолжительность : 22 м.
Вид битрейта : Переменный
Битрейт : 5925 Кбит/сек
Максимальный битрейт : 9800 Кбит/сек
Ширина : 720 пикселей
Высота : 576 пикселей
Соотношение сторон : 4:3
Частота кадров : 25,000 кадров/сек
Стандарт вещания : PAL
Цветовое пространство : YUV
Субдискретизация насыщенности : 4:2:0
Битовая глубина : 8 бит
Тип развёртки : Чересстрочная
Порядок развёртки : Верхнее поле первое
Метод сжатия : С потерями
Бит/(Пиксели*Кадры) : 0.571
Размер потока : 949 Мбайт (95%)
Аудио
Идентификатор : 189 (0xBD)-128 (0x80)
Формат : AC-3
Формат/Информация : Audio Coding 3
Расширение режима : CM (complete main)
Параметр Endianness формата : Big
Режим смешивания : DVD-Video
Продолжительность : 22 м.
Вид битрейта : Постоянный
Битрейт : 192 Кбит/сек
Каналы : 2 канала
Расположение каналов : Front: L R
Частота : 48,0 КГц
Битовая глубина : 16 бит
Метод сжатия : С потерями
Задержка видео : -528 мс.
Размер потока : 30,8 Мбайт (3%)
Меню
Общее
Полное имя : D:\Razdaca\Айдамир и Анжелика\VIDEO_TS\VTS_02_5.VOB
Формат : MPEG-PS
Размер файла : 45,7 Мбайт
Продолжительность : 1 м. 26 с.
Режим общего битрейта : Переменный
Общий поток : 4433 Кбит/сек
Видео
Идентификатор : 224 (0xE0)
Формат : MPEG Video
Версия формата : Version 2
Профиль формата : Main@Main
Параметр BVOP формата : Да
Параметр матрицы формата : Выборочная
Параметр GOP формата : M=3, N=15
Продолжительность : 1 м. 26 с.
Вид битрейта : Переменный
Битрейт : 4153 Кбит/сек
Максимальный битрейт : 9800 Кбит/сек
Ширина : 720 пикселей
Высота : 576 пикселей
Соотношение сторон : 4:3
Частота кадров : 25,000 кадров/сек
Стандарт вещания : PAL
Цветовое пространство : YUV
Субдискретизация насыщенности : 4:2:0
Битовая глубина : 8 бит
Тип развёртки : Чересстрочная
Порядок развёртки : Верхнее поле первое
Метод сжатия : С потерями
Бит/(Пиксели*Кадры) : 0.401
Размер потока : 42,7 Мбайт (93%)
Аудио
Идентификатор : 189 (0xBD)-128 (0x80)
Формат : AC-3
Формат/Информация : Audio Coding 3
Расширение режима : CM (complete main)
Параметр Endianness формата : Big
Режим смешивания : DVD-Video
Продолжительность : 1 м. 26 с.
Вид битрейта : Постоянный
Битрейт : 192 Кбит/сек
Каналы : 2 канала
Расположение каналов : Front: L R
Частота : 48,0 КГц
Битовая глубина : 16 бит
Метод сжатия : С потерями
Задержка видео : -352 мс.
Размер потока : 1,98 Мбайт (4%)
Меню
Скриншоты меню
Скриншоты
Download
Чтобы скачать .torrent файл необходима регистрация
Сайт не распространяет и не хранит электронные версии произведений, а лишь предоставляет доступ к создаваемому пользователями каталогу ссылок на торрент-файлы, которые содержат только списки хеш-сумм
[Профиль]  [ЛС] 

Svyturys5

Стаж: 5 лет

Сообщений: 703


Svyturys5 · 12-Май-14 15:09 (спустя 2 дня 14 часов, ред. 12-Май-14 15:09)

[Цитировать] 

Всех с праздником и приятного просмотра

Вот кому интересно еще один есть http://рутрекер.org/forum/viewtopic.php?t=4000497
Ночью раздовать НЕБУДУ скачивайте днем
pasha-garo Удачной скачки и хорошего просмотра
[Профиль]  [ЛС] 

Svyturys5

Стаж: 5 лет

Сообщений: 703


Svyturys5 · 07-Июн-14 16:11 (спустя 26 дней)

[Цитировать] 

Ну что друзья скачали и убежали а жаль Ну это на вашей совести если роздача уйдет в Архив
[Профиль]  [ЛС] 

Svyturys5

Стаж: 5 лет

Сообщений: 703


Svyturys5 · 01-Июл-14 09:17 (спустя 23 дня)

[Цитировать] 

http://рутрекер.org/forum/viewtopic.php?t=4000497
[Профиль]  [ЛС] 

Svyturys5

Стаж: 5 лет

Сообщений: 703


Svyturys5 · 21-Дек-14 11:24 (спустя 5 месяцев 20 дней)

[Цитировать] 

Кто писал Встал на роздачу до НОВОГО года а потом уже точно уйду Всем УДАЧИ в НОВОМ Году и много хорошей музыки
[Профиль]  [ЛС] 

Svyturys5

Стаж: 5 лет

Сообщений: 703


Svyturys5 · 02-Янв-15 13:09 (спустя 12 дней)

[Цитировать] 

Всех с новым 2015 Годом всех благ и хорошей музыки в Новом году
[Профиль]  [ЛС] 

purskyi

Music Group

Стаж: 7 лет 8 месяцев

Сообщений: 5122

purskyi · 11-Окт-17 20:53 (спустя 2 года 9 месяцев, ред. 11-Окт-17 20:53)

[Цитировать] 

резерв ковриков
полноразмерные


[Профиль]  [ЛС] 
 
Ответить
Loading...
Error