Адрес РуТрекера для пользователей РФ - MainTracker.org

Расскажи друзьям:  

RPW "Битвы рестлеров" [2011, Рестлинг, DVD9] скачать через торрент

Страницы:  1

Ответить
Автор
Сообщение

Shedrin

Top Loader 02* 300GB

Стаж: 10 лет 8 месяцев

Сообщений: 232

Shedrin · 04-Авг-11 15:36 (6 лет 3 месяца назад, ред. 12-Авг-11 09:07)

RPW "Битвы рестлеров"
Год выпуска: 2011
Вид спорта: Рестлинг
Участники: RPW
Продолжительность: 137 минут
Комментарий: Профессиональный (двухголосый)
Язык комментариев: Русский
Информация: Данный релиз является ОФИЦИАЛЬНЫМ релизом RPW. Выкладывать отдельные части или ужатые версии категорически НЕЖЕЛАТЕЛЬНО.
Доп. информация: Всё постороннее обсуждение ведется ЗДЕСЬ!
Качество: DVD9
Формат: DVD Video
Видео кодек MPEG2
Video
ID : 224 (0xE0)
Format : MPEG Video
Format version : Version 2
Format profile : Main@Main
Format settings, BVOP : Yes
Format settings, Matrix : Default
Format settings, GOP : M=3, N=15
Duration : 22mn 2s
Bit rate mode : Variable
Bit rate : 5 915 Kbps
Nominal bit rate : 8 000 Kbps
Width : 720 pixels
Height : 576 pixels
Display aspect ratio : 16:9
Frame rate : 25.000 fps
Standard : PAL
Color space : YUV
Chroma subsampling : 4:2:0
Bit depth : 8 bits
Scan type : Progressive
Compression mode : Lossy
Bits/(Pixel*Frame) : 0.570
Stream size : 933 MiB (91%)
Аудио кодек AC3
Audio #1
ID : 193 (0xC1)
Format : MPEG Audio
Format version : Version 1
Format profile : Layer 2
Duration : 22mn 3s
Bit rate mode : Constant
Bit rate : 224 Kbps
Channel(s) : 2 channels
Sampling rate : 48.0 KHz
Compression mode : Lossy
Delay relative to video : -344ms
Stream size : 35.3 MiB (3%)
Audio #2
ID : 189 (0xBD)-128 (0x80)
Format : AC-3
Format/Info : Audio Coding 3
Mode extension : CM (complete main)
Muxing mode : DVD-Video
Duration : 22mn 2s
Bit rate mode : Constant
Bit rate : 224 Kbps
Channel(s) : 2 channels
Channel positions : Front: L R
Sampling rate : 48.0 KHz
Bit depth : 16 bits
Compression mode : Lossy
Delay relative to video : -304ms
Stream size : 35.3 MiB (3%)
Скриншоты
Полноразмерные коврики
Download
Чтобы скачать .torrent файл необходима регистрация
Сайт не распространяет и не хранит электронные версии произведений, а лишь предоставляет доступ к создаваемому пользователями каталогу ссылок на торрент-файлы, которые содержат только списки хеш-сумм
[Профиль]  [ЛС] 

Breakster

Стаж: 10 лет 11 месяцев

Сообщений: 1300

Breakster · 04-Авг-11 15:42 (спустя 5 мин., ред. 04-Авг-11 15:43)

[Цитировать] 

Shedrin писал(а):
ужатое видео есть целиком на сайте http://www***
Рекламу оффни.
Нужны подробные тех. данные по аудио и видео.
Место ковриков добавь пару скриншотов. 2.4. О скриншотах
[Профиль]  [ЛС] 

Shedrin

Top Loader 02* 300GB

Стаж: 10 лет 8 месяцев

Сообщений: 232

Shedrin · 04-Авг-11 15:43 (спустя 1 мин., ред. 04-Авг-11 15:43)

[Цитировать] 

Breakster
Делаю. Еще оформляю. Ковры полноразмерные для тех, кто захочет диск оформлять.
[Профиль]  [ЛС] 

kawaifox

Стаж: 8 лет 5 месяцев

Сообщений: 5729

kawaifox · 04-Авг-11 15:50 (спустя 6 мин.)

[Цитировать] 

Shedrin писал(а):
Данный релиз является ОФИЦИАЛЬНЫМ релизом RPW.
отличный цвет шрифта
[Профиль]  [ЛС] 

Shedrin

Top Loader 02* 300GB

Стаж: 10 лет 8 месяцев

Сообщений: 232

Shedrin · 04-Авг-11 15:56 (спустя 6 мин.)

[Цитировать] 

kawaifox писал(а):
Shedrin писал(а):
Данный релиз является ОФИЦИАЛЬНЫМ релизом RPW.
отличный цвет шрифта
Специально для Вас, уважаемый, напИсал, куда идти со своими сентенциями. Просьбы не отклоняться от задуманного курса.
[Профиль]  [ЛС] 

anderrson

Moderator

Стаж: 9 лет 11 месяцев

Сообщений: 16107

anderrson · 04-Авг-11 15:58 (спустя 2 мин.)

[Цитировать] 

Shedrin
Рекламу раздела общения в такой формулировке, я бы убрал из описания.
Постер уменьшите до 500 пикселей в ширину.
[Профиль]  [ЛС] 

anderrson

Moderator

Стаж: 9 лет 11 месяцев

Сообщений: 16107

anderrson · 04-Авг-11 16:05 (спустя 6 мин.)

[Цитировать] 

Shedrin писал(а):
anderrson
Готово.
Скрины должны быть в виде превью.
Breakster писал(а):
[Профиль]  [ЛС] 

RVD_Rob_Van_Dam

Стаж: 7 лет 9 месяцев

Сообщений: 71


RVD_Rob_Van_Dam · 04-Авг-11 18:06 (спустя 2 часа)

[Цитировать] 

можете выложить в меньшем объёме?
[Профиль]  [ЛС] 

crazytoxic

Стаж: 7 лет 1 месяц

Сообщений: 154

crazytoxic · 04-Авг-11 19:03 (спустя 57 мин.)

[Цитировать] 

совсем лажа?
[Профиль]  [ЛС] 

Bilya63-N1

Стаж: 9 лет 1 месяц

Сообщений: 674

Bilya63-N1 · 04-Авг-11 19:53 (спустя 49 мин.)

[Цитировать] 

качать не буду из-за такого размера, нужен РИП
[Профиль]  [ЛС] 

eduarde

Стаж: 8 лет 5 месяцев

Сообщений: 72

eduarde · 05-Авг-11 00:29 (спустя 4 часа)

[Цитировать] 

надеюсь кто-нить сделает рип
[Профиль]  [ЛС] 

Dontstoper

Стаж: 7 лет 9 месяцев

Сообщений: 1


Dontstoper · 09-Авг-11 17:42 (спустя 4 дня)

[Цитировать] 

RPW,всего вам наилучшего в ваших начинаниях!Качаю полюбому!
[Профиль]  [ЛС] 

Karpuhina

Стаж: 7 лет 1 месяц

Сообщений: 66


Karpuhina · 05-Янв-14 18:29 (спустя 2 года 4 месяца)

[Цитировать] 

Спасибо!Лично мне очень интересно!Главное теперь дайте скачать!
[Профиль]  [ЛС] 
 
Ответить
Loading...
Error