Адрес РуТрекера для пользователей РФ - MainTracker.org

Расскажи друзьям:  

[DTSCD][SA] Bryan Ferry - Boys And Girls - 2005 (Pop-Rock, Art Rock) скачать через торрент

Страницы:  1

Ответить
Автор
Сообщение

A123987

Стаж: 8 лет 9 месяцев

Сообщений: 67

A123987 · 17-Апр-09 21:07 (8 лет 7 месяцев назад, ред. 17-Апр-09 21:19)

Bryan Ferry - Boys And Girls (SACD - DTS 5.1)
Жанр: Pop/Rock, Art Rock
Год выпуска диска: 2005
Производитель диска: UK
Аудио кодек: DTS
Тип рипа: image+.cue
Битрейт аудио: lossless
Продолжительность: 38:33
Трэклист:
01. Sensation
02. Slave to Love
03. Don't Stop the Dance
04. A Waste Land
05. Windswept
06. The Chosen One
07. Valentine
08. Stone Woman
09. Boys and Girls
Доп. информация
Release: April 12, 2005 (Orig Year: 3 June 1985) | Label: Virgin Records Ltd.
Состав
* Bryan Ferry - vocals
* Guy Fletcher - keyboards
* David Gilmour - guitar
* Omar Hakim - drums
Отчет EAC
Exact Audio Copy V0.99 prebeta 4 from 23. January 2008
EAC extraction logfile from 10. November 2008, 10:51
Bryan Ferry / Boys And Girls [SACD - DTS 5.1]
Used drive : SO0158T REZ192S Adapter: 3 ID: 0
Read mode : Secure
Utilize accurate stream : Yes
Defeat audio cache : Yes
Make use of C2 pointers : No
Read offset correction : 0
Overread into Lead-In and Lead-Out : No
Fill up missing offset samples with silence : Yes
Delete leading and trailing silent blocks : No
Null samples used in CRC calculations : No
Used interface : Installed external ASPI interface
Used output format : Internal WAV Routines
Sample format : 44.100 Hz; 16 Bit; Stereo
TOC of the extracted CD
Track | Start | Length | Start sector | End sector
---------------------------------------------------------
1 | 0:00.00 | 5:09.01 | 0 | 23175
2 | 5:09.01 | 4:24.01 | 23176 | 42976
3 | 9:33.02 | 4:23.15 | 42977 | 62716
4 | 13:56.17 | 1:02.60 | 62717 | 67426
5 | 14:59.02 | 4:30.02 | 67427 | 87678
6 | 19:29.04 | 4:52.60 | 87679 | 109638
7 | 24:21.64 | 3:48.05 | 109639 | 126743
8 | 28:09.69 | 5:11.25 | 126744 | 150093
9 | 33:21.19 | 5:11.61 | 150094 | 173479
Range status and errors
Selected range
Filename C:\0001 SACD HDCD\Bryan Ferry - Boys And Girls [SACD - DTS 5.1]\Bryan Ferry - Boys And Girls [SACD - DTS 5.1].wav
Peak level 25.0 %
Range quality 100.0 %
Copy CRC F684C4E4
Copy OK
No errors occurred
AccurateRip summary
Track 1 not present in database
Track 2 not present in database
Track 3 not present in database
Track 4 not present in database
Track 5 not present in database
Track 6 not present in database
Track 7 not present in database
Track 8 not present in database
Track 9 not present in database
None of the tracks are present in the AccurateRip database
End of status report
Download
Чтобы скачать .torrent файл необходима регистрация
Сайт не распространяет и не хранит электронные версии произведений, а лишь предоставляет доступ к создаваемому пользователями каталогу ссылок на торрент-файлы, которые содержат только списки хеш-сумм
[Профиль]  [ЛС] 

dimulyok

VIP (Заслуженный)

Стаж: 11 лет

Сообщений: 1771

dimulyok · 18-Апр-09 01:54 (спустя 4 часа)

[Цитировать] 

A123987 я что то не совсем понял, вы что просто засунули диск SACD в привод и с помощью EAC копирнули его? или где то скачали в образе в виде дтс-сд с помощью EAC копирнули и выкладывайте в более удобном варианте, как в лосслес раздачах?
[Профиль]  [ЛС] 

Anna177rus

Стаж: 10 лет 4 месяца

Сообщений: 139

Anna177rus · 13-Сен-09 11:03 (спустя 4 месяца 25 дней, ред. 13-Сен-09 22:42)

[Цитировать] 

Bryan Ferry - Супер, спасибо!!! Отличная Музыка! Отличное Качество!
[Профиль]  [ЛС] 

borneo23

Стаж: 8 лет 4 месяца

Сообщений: 100

borneo23 · 27-Окт-09 11:44 (спустя 1 месяц 14 дней)

[Цитировать] 

Прекрасная миксовка, звук супер!
Не думаю, что звучит хуже, чем http://рутрекер.org/forum/viewtopic.php?t=1145876
Скачал в другом месте, но к раздаче присоединяюсь с удовольствием
Чего не сделаешь для Bryan'a Ferry
[Профиль]  [ЛС] 

PartizanStorm

Стаж: 7 лет 5 месяцев

Сообщений: 11


PartizanStorm · 27-Июн-10 02:43 (спустя 7 месяцев)

[Цитировать] 

Что то не скачивается, никого нет?
[Профиль]  [ЛС] 

abovery

Стаж: 8 лет 4 месяца

Сообщений: 70

abovery · 20-Окт-10 17:50 (спустя 3 месяца 23 дня, ред. 21-Окт-10 15:24)

[Цитировать] 

Хотел конвертнуть в mp3.
1. Порезал сплиттером (Medieval CUE Splitter) на треки.
2. Эктрактером (Easy CD-DA Extractor) конвертнул в mp3.
3. Получил 9 треков великолепного ШУМА.
4. Подумал, что я м.дак и попробовал воспроизвести wav-дорожку. Результат тот-же.
5. Сижу и думаю: может аффтор объяснит, what to me to do? Ибо не раз так делал, а тут - цугундер какой-то...
p.s Вижу аффтору давно на свою лажу наплевать. Жаль.
[Профиль]  [ЛС] 

zzayyazz

Стаж: 10 лет 1 месяц

Сообщений: 2989


zzayyazz · 22-Окт-10 11:28 (спустя 1 день 17 часов)

[Цитировать] 

abovery Что ж вы тут понаписали, любезнейший? Кто ж пакует dts-wav в mp3? Да еще детским софтом, не предназначенным для работы с мультиканалом вообще... Но раз Вы это написали, следовательно, умеете читать. Загляните хотя бы в Помощь по разделу Многоканальная музыка. Там Вы найдете элементарные сведения о формате dts-wav и о том, как и чем его разбирать на каналы, и как потом конвертировать в другие виды звуковых потоков.
[Профиль]  [ЛС] 

Val_Crushon

Стаж: 8 лет 4 месяца

Сообщений: 89


Val_Crushon · 05-Дек-10 08:26 (спустя 1 месяц 13 дней)

[Цитировать] 

abovery
Ставим софтовый плэйер Jet audio, и пишем болванку, фубар2000 берёт, но не пишет.
[Профиль]  [ЛС] 

caroval

Стаж: 4 года 8 месяцев

Сообщений: 29

caroval · 27-Ноя-15 20:44 (спустя 4 года 11 месяцев)

[Цитировать] 

Muchas gracias por el aporte.
спасибо за ваше время и вклад
[Профиль]  [ЛС] 
 
Ответить
Loading...
Error