Адрес РуТрекера для пользователей РФ - MainTracker.org

Расскажи друзьям:  

孫燕姿 Sūn Yànzī Sun Yanzi Stefanie Sun - rare 2003 The Moment Live [2003, Chinese Pop, Mandopop, DVD5] скачать через торрент

Страницы:  1

Ответить
Автор
Сообщение

СпикИнглиш1

Стаж: 4 месяца 7 дней

Сообщений: 28


СпикИнглиш1 · 25-Июл-17 04:15 (3 месяца 26 дней назад, ред. 02-Авг-17 19:05)

Sun Yanzi Sūn Yànzī 孫燕姿 Stefanie Sun rare 2003 The Moment Live concert DVD Chinese audio
Страна: Taiwan
Жанр: Chinese Pop, Mandopop
Продолжительность: 01:13:38
Год выпуска: Around 2003
Лейбл: Purportedly Warner Music Taiwan Limited
Описание: She has a strong voice, her singing is art, but also watch her face--and hold your breath: it is great acting.
Треклист:
01. 我要的幸福
02. 害怕
03. Leave Me Alone
04. The Moment
05. 不能和你一起
06. 風箏
07. 逃亡
08. 超快感
09. 甜蜜蜜 (this is not a 孫燕姿's song, but rather a rap (??) version of a 鄧麗君's song)
10. 愛不了 (this is not a 孫燕姿's song, but some kind of a rap)
11. Someone
12. 很好
13. 任性
14. 遇見
15. 懶得去管
16. 綠光
17. 天黑黑
Доп. информация: "Moment" is misspelled on the artwork. Was there a complete breakdown in their production, or is this some kind of a bootleg, unauthorized DVD? It seems to be rare, because I can't see it in 孫燕姿's discography. Also, the audio is mono and low quality. Strange.
Разбивка на главы по трекам: есть
Качество : DVD5
Формат: DVD video
Видео кодек: MPEG2
Аудио кодек: AC3
Видео: MPEG 2, 720x480, 4:3, variable bit rate, 29.97 FPS, with non-removable Chinese subtitles
Аудио: Chinese, AC3, 448 kb/s, 48 kHz, purportedly 3F2R/LFE, actually mono
DVDinfo
General
Complete name : DVD\VIDEO_TS\VIDEO_TS.BUP
Format : DVD Video
Format profile : Menu
File size : 6.00 KiB
Overall bit rate mode : Variable
FileExtension_Invalid : ifo
Video
ID : 224 (0xE0)
Format : MPEG Video
Format version : Version 1
Bit rate mode : Variable
Width : 720 pixels
Height : 480 pixels
Display aspect ratio : 4:3
Frame rate : 29.970 (29970/1000) FPS
Standard : NTSC
Compression mode : Lossy
General
Complete name : DVD\VIDEO_TS\VIDEO_TS.IFO
Format : DVD Video
Format profile : Menu
File size : 6.00 KiB
Overall bit rate mode : Variable
Video
ID : 224 (0xE0)
Format : MPEG Video
Format version : Version 1
Bit rate mode : Variable
Width : 720 pixels
Height : 480 pixels
Display aspect ratio : 4:3
Frame rate : 29.970 (29970/1000) FPS
Standard : NTSC
Compression mode : Lossy
General
Complete name : DVD\VIDEO_TS\VTS_01_0.BUP
Format : DVD Video
Format profile : Program
File size : 56.0 KiB
Duration : 1 h 13 min
Overall bit rate mode : Variable
Overall bit rate : 104 b/s
FileExtension_Invalid : ifo
Video
ID : 224 (0xE0)
Format : MPEG Video
Format version : Version 2
Duration : 1 h 13 min
Bit rate mode : Variable
Width : 720 pixels
Height : 480 pixels
Display aspect ratio : 4:3
Frame rate : 29.970 (29970/1000) FPS
Standard : NTSC
Compression mode : Lossy
Audio #1
ID : 128 (0x80)
Format : AC-3
Format/Info : Audio Coding 3
Duration : 1 h 13 min
Channel(s) : 6 channels
Sampling rate : 48.0 kHz
Compression mode : Lossy
Language : Chinese
Audio #2
Format : DTS
Format/Info : Digital Theater Systems
Duration : 1 h 13 min
Channel(s) : 6 channels
Sampling rate : 48.0 kHz
Compression mode : Lossy
Language : Chinese
Menu
Duration : 1 h 13 min
00:00:00.000 : Chapter 1
00:00:09.000 : Chapter 2
00:05:21.800 : Chapter 3
00:09:25.800 : Chapter 4
00:13:20.800 : Chapter 5
00:17:59.833 : Chapter 6
00:22:31.833 : Chapter 7
00:27:25.066 : Chapter 8
00:32:06.999 : Chapter 9
00:35:45.199 : Chapter 10
00:39:29.765 : Chapter 11
00:42:54.031 : Chapter 12
00:46:42.897 : Chapter 13
00:50:59.797 : Chapter 14
00:54:51.930 : Chapter 15
00:58:25.930 : Chapter 16
01:03:49.030 : Chapter 17
01:09:51.096 : Chapter 18
01:13:34.396 : Chapter 19
List (Audio) : 0
General
Complete name : DVD\VIDEO_TS\VTS_01_0.IFO
Format : DVD Video
Format profile : Program
File size : 56.0 KiB
Duration : 1 h 13 min
Overall bit rate mode : Variable
Overall bit rate : 104 b/s
Video
ID : 224 (0xE0)
Format : MPEG Video
Format version : Version 2
Duration : 1 h 13 min
Bit rate mode : Variable
Width : 720 pixels
Height : 480 pixels
Display aspect ratio : 4:3
Frame rate : 29.970 (29970/1000) FPS
Standard : NTSC
Compression mode : Lossy
Audio #1
ID : 128 (0x80)
Format : AC-3
Format/Info : Audio Coding 3
Duration : 1 h 13 min
Channel(s) : 6 channels
Sampling rate : 48.0 kHz
Compression mode : Lossy
Language : Chinese
Audio #2
Format : DTS
Format/Info : Digital Theater Systems
Duration : 1 h 13 min
Channel(s) : 6 channels
Sampling rate : 48.0 kHz
Compression mode : Lossy
Language : Chinese
Menu
Duration : 1 h 13 min
00:00:00.000 : Chapter 1
00:00:09.000 : Chapter 2
00:05:21.800 : Chapter 3
00:09:25.800 : Chapter 4
00:13:20.800 : Chapter 5
00:17:59.833 : Chapter 6
00:22:31.833 : Chapter 7
00:27:25.066 : Chapter 8
00:32:06.999 : Chapter 9
00:35:45.199 : Chapter 10
00:39:29.765 : Chapter 11
00:42:54.031 : Chapter 12
00:46:42.897 : Chapter 13
00:50:59.797 : Chapter 14
00:54:51.930 : Chapter 15
00:58:25.930 : Chapter 16
01:03:49.030 : Chapter 17
01:09:51.096 : Chapter 18
01:13:34.396 : Chapter 19
List (Audio) : 0
General
Complete name : DVD\VIDEO_TS\VTS_01_0.VOB
Format : MPEG-PS
File size : 69.0 MiB
Duration : 35 s 636 ms
Overall bit rate : 16.2 Mb/s
Video
ID : 224 (0xE0)
Format : MPEG Video
Format version : Version 2
Format profile : Main@Main
Format settings, BVOP : Yes
Format settings, Matrix : Custom
Format settings, GOP : M=3, N=15
Format settings, picture structure : Frame
Duration : 35 s 636 ms
Bit rate mode : Constant
Bit rate : 15.5 Mb/s
Maximum bit rate : 7 500 kb/s
Width : 720 pixels
Height : 480 pixels
Display aspect ratio : 4:3
Frame rate : 29.970 (30000/1001) FPS
Standard : NTSC
Color space : YUV
Chroma subsampling : 4:2:0
Bit depth : 8 bits
Scan type : Interlaced
Scan order : Top Field First
Compression mode : Lossy
Bits/(Pixel*Frame) : 1.494
Time code of first frame : 00:00:00:00
Time code source : Group of pictures header
GOP, Open/Closed : Open
GOP, Open/Closed of first frame : Closed
Stream size : 65.7 MiB (95%)
Audio
ID : 189 (0xBD)-128 (0x80)
Format : AC-3
Format/Info : Audio Coding 3
Format settings, Endianness : Big
Muxing mode : DVD-Video
Duration : 35 s 40 ms
Bit rate mode : Constant
Bit rate : 448 kb/s
Channel(s) : 6 channels
Channel positions : Front: L C R, Side: L R, LFE
Sampling rate : 48.0 kHz
Frame rate : 31.250 FPS (1536 SPF)
Bit depth : 16 bits
Compression mode : Lossy
Stream size : 1.87 MiB (3%)
Service kind : Complete Main
Text
ID : 189 (0xBD)-32 (0x20)
Format : RLE
Format/Info : Run-length encoding
Muxing mode : DVD-Video
Menu
General
Complete name : DVD\VIDEO_TS\VTS_01_1.VOB
Format : MPEG-PS
File size : 1 024 MiB
Duration : 33 min 18 s
Overall bit rate mode : Variable
Overall bit rate : 4 299 kb/s
Video
ID : 224 (0xE0)
Format : MPEG Video
Format version : Version 2
Format profile : Main@Main
Format settings, BVOP : Yes
Format settings, Matrix : Default
Format settings, GOP : Variable
Format settings, picture structure : Frame
Duration : 33 min 18 s
Bit rate mode : Variable
Bit rate : 3 766 kb/s
Maximum bit rate : 6 000 kb/s
Width : 720 pixels
Height : 480 pixels
Display aspect ratio : 4:3
Frame rate : 29.970 (30000/1001) FPS
Standard : NTSC
Color space : YUV
Chroma subsampling : 4:2:0
Bit depth : 8 bits
Scan type : Interlaced
Scan order : Bottom Field First
Compression mode : Lossy
Bits/(Pixel*Frame) : 0.364
Time code of first frame : 00:00:00:00
Time code source : Group of pictures header
GOP, Open/Closed : Open
GOP, Open/Closed of first frame : Closed
Stream size : 897 MiB (88%)
Audio
ID : 189 (0xBD)-128 (0x80)
Format : AC-3
Format/Info : Audio Coding 3
Format settings, Endianness : Big
Muxing mode : DVD-Video
Duration : 33 min 17 s
Bit rate mode : Constant
Bit rate : 448 kb/s
Channel(s) : 6 channels
Channel positions : Front: L C R, Side: L R, LFE
Sampling rate : 48.0 kHz
Frame rate : 31.250 FPS (1536 SPF)
Bit depth : 16 bits
Compression mode : Lossy
Stream size : 107 MiB (10%)
Service kind : Complete Main
Menu
General
Complete name : DVD\VIDEO_TS\VTS_01_2.VOB
Format : MPEG-PS
File size : 1 024 MiB
Duration : 31 min 33 s
Overall bit rate mode : Variable
Overall bit rate : 4 537 kb/s
Video
ID : 224 (0xE0)
Format : MPEG Video
Format version : Version 2
Format profile : Main@Main
Format settings, BVOP : Yes
Format settings, Matrix : Default
Format settings, GOP : Variable
Format settings, picture structure : Frame
Duration : 31 min 33 s
Bit rate mode : Variable
Bit rate : 3 999 kb/s
Maximum bit rate : 6 000 kb/s
Width : 720 pixels
Height : 480 pixels
Display aspect ratio : 4:3
Frame rate : 29.970 (30000/1001) FPS
Standard : NTSC
Color space : YUV
Chroma subsampling : 4:2:0
Bit depth : 8 bits
Scan type : Interlaced
Scan order : Bottom Field First
Compression mode : Lossy
Bits/(Pixel*Frame) : 0.386
Time code of first frame : 00:33:16:01
Time code source : Group of pictures header
Stream size : 902 MiB (88%)
Audio
ID : 189 (0xBD)-128 (0x80)
Format : AC-3
Format/Info : Audio Coding 3
Format settings, Endianness : Big
Muxing mode : DVD-Video
Duration : 31 min 33 s
Bit rate mode : Constant
Bit rate : 448 kb/s
Channel(s) : 6 channels
Channel positions : Front: L C R, Side: L R, LFE
Sampling rate : 48.0 kHz
Frame rate : 31.250 FPS (1536 SPF)
Bit depth : 16 bits
Compression mode : Lossy
Delay relative to video : -464 ms
Stream size : 101 MiB (10%)
Service kind : Complete Main
Menu
General
Complete name : DVD\VIDEO_TS\VTS_01_3.VOB
Format : MPEG-PS
File size : 290 MiB
Duration : 8 min 47 s
Overall bit rate mode : Variable
Overall bit rate : 4 608 kb/s
Video
ID : 224 (0xE0)
Format : MPEG Video
Format version : Version 2
Format profile : Main@Main
Format settings, BVOP : Yes
Format settings, Matrix : Default
Format settings, GOP : Variable
Format settings, picture structure : Frame
Duration : 8 min 47 s
Bit rate mode : Variable
Bit rate : 4 069 kb/s
Maximum bit rate : 6 000 kb/s
Width : 720 pixels
Height : 480 pixels
Display aspect ratio : 4:3
Frame rate : 29.970 (30000/1001) FPS
Standard : NTSC
Color space : YUV
Chroma subsampling : 4:2:0
Bit depth : 8 bits
Scan type : Interlaced
Scan order : Bottom Field First
Compression mode : Lossy
Bits/(Pixel*Frame) : 0.393
Time code of first frame : 01:04:47:21
Time code source : Group of pictures header
Stream size : 256 MiB (88%)
Audio
ID : 189 (0xBD)-128 (0x80)
Format : AC-3
Format/Info : Audio Coding 3
Format settings, Endianness : Big
Muxing mode : DVD-Video
Duration : 8 min 47 s
Bit rate mode : Constant
Bit rate : 448 kb/s
Channel(s) : 6 channels
Channel positions : Front: L C R, Side: L R, LFE
Sampling rate : 48.0 kHz
Frame rate : 31.250 FPS (1536 SPF)
Bit depth : 16 bits
Compression mode : Lossy
Delay relative to video : -710 ms
Stream size : 28.2 MiB (10%)
Service kind : Complete Main
Menu
Скриншоты меню
Скриншоты
Download
Чтобы скачать .torrent файл необходима регистрация
Сайт не распространяет и не хранит электронные версии произведений, а лишь предоставляет доступ к создаваемому пользователями каталогу ссылок на торрент-файлы, которые содержат только списки хеш-сумм
[Профиль]  [ЛС] 

Shoroh1970

Стаж: 7 лет 10 месяцев

Сообщений: 312


Shoroh1970 · 19-Окт-17 18:33 (спустя 2 месяца 25 дней)

[Цитировать] 

Посидируйте, плиз!
[Профиль]  [ЛС] 

СпикИнглиш1

Стаж: 4 месяца 7 дней

Сообщений: 28


СпикИнглиш1 · 20-Окт-17 00:28 (спустя 5 часов, ред. 10-Ноя-17 07:48)

[Цитировать] 

Don't worry, I intend to seed it for a long time, and sometimes I can provide transfer rates up to 11 megabytes (not megabits) per second, but please note that:
1. I am online only sporadically, and
2. I am in a time zone eight hours away from Russia, so I am likely to be sleeping from 08:00 MSK to 15:00 MSK.
[Профиль]  [ЛС] 

Shoroh1970

Стаж: 7 лет 10 месяцев

Сообщений: 312


Shoroh1970 · 22-Окт-17 17:37 (спустя 2 дня 17 часов, ред. 22-Окт-17 17:37)

[Цитировать] 

СпикИнглиш1 thank you very much. I'll be waiting.
[Профиль]  [ЛС] 
 
Ответить
Loading...
Error