Адрес РуТрекера для пользователей РФ - MainTracker.org

Расскажи друзьям:  

Roland Garros 2017 / 1/2 финала / Энди Маррей (Великобритания) - Стэн Вавринка (Швейцария) / [1] Andy MURRAY GBR - [3] Stan WAWRINKA SUI / Eurosport 1 HD [09.06.2017, Теннис, HDTVRip/400p/50fps, MKV/H.264, RU/EN] скачать через торрент

Страницы:  1

Ответить
Автор
Сообщение

intellect

Стаж: 13 лет

Сообщений: 39845


intellect · 10-Июн-17 00:37 (5 месяцев 10 дней назад)

Roland Garros 2017. 1/2 финала
[1] Andy MURRAY GBR - [3] Stan WAWRINKA SUI

Дата выпуск: 09.06.2017
Вид спорта: Теннис
Комментарий: Профессиональный
Язык комментариев: Русский (Ташев, Чакветадзе) / Английский
Описание: Roland Garros 2017 / 1/2 финала / Энди Маррей (Великобритания) - Стэн Вавринка (Швейцария).
Автор рипа: ваще рутрекер.орг, но все-таки music it's my life
Качество: HDTVRip
Формат: MKV
Видео кодек: AVC
Аудио кодек: AC3
Видео: MPEG4 Video (H264) 704x400 (16:9) 50fps 1000kbps
Аудио: Dolby AC3 48000Hz stereo 128kbps
Скрины
Media Info
General
Unique ID : 11514445601480310215008020839941677558 (0x8A999FFAF50FF894005D9E6464221F6)
Complete name : W:\раздачи\Roland Garros 2017 MS SF [1] Andy MURRAY GBR - [3] Stan WAWRINKA SUI Rutracker.org_400p.mkv
Format : Matroska
Format version : Version 4 / Version 2
File size : 2.21 GiB
Duration : 4 h 10 min
Overall bit rate : 1 266 kb/s
Writing application : XviD4PSP 7.0.389 DAILY
Writing library : Lavf57.71.100 / Lavf57.71.100
ErrorDetectionType : Per level 1
ENCODING_INFO : MATROSKA,WEBM > MKV / H264 > X264 CRF 25.0 Medium / AC3 > AC3 CBR 128kbps / AC3 > AC3 CBR 128kbps
Video
ID : 1
Format : AVC
Format/Info : Advanced Video Codec
Format profile : High@L4.1
Format settings, CABAC : Yes
Format settings, ReFrames : 4 frames
Codec ID : V_MPEG4/ISO/AVC
Duration : 4 h 10 min
Bit rate : 984 kb/s
Width : 704 pixels
Height : 400 pixels
Display aspect ratio : 16:9
Frame rate mode : Constant
Frame rate : 50.000 FPS
Color space : YUV
Chroma subsampling : 4:2:0
Bit depth : 8 bits
Scan type : Progressive
Bits/(Pixel*Frame) : 0.070
Stream size : 1.72 GiB (78%)
Writing library : x264 core 150 r2833M df79067
Encoding settings : cabac=1 / ref=3 / deblock=1:1:1 / analyse=0x3:0x113 / me=hex / subme=7 / psy=1 / psy_rd=1.00:0.00 / mixed_ref=1 / me_range=16 / chroma_me=1 / trellis=1 / 8x8dct=1 / cqm=0 / deadzone=21,11 / fast_pskip=1 / chroma_qp_offset=-2 / threads=5 / lookahead_threads=1 / sliced_threads=0 / nr=0 / decimate=1 / interlaced=0 / bluray_compat=0 / constrained_intra=0 / bframes=3 / b_pyramid=2 / b_adapt=1 / b_bias=0 / direct=1 / weightb=1 / open_gop=0 / weightp=2 / keyint=500 / keyint_min=50 / scenecut=40 / intra_refresh=0 / rc_lookahead=40 / rc=crf / mbtree=1 / crf=25.0 / qcomp=0.60 / qpmin=0 / qpmax=69 / qpstep=4 / ip_ratio=1.40 / aq=1:1.00
Default : Yes
Forced : No
Color range : Limited
Color primaries : BT.709
Transfer characteristics : BT.709
Matrix coefficients : BT.709
DURATION : 04:10:32.840000000
Audio #1
ID : 2
Format : AC-3
Format/Info : Audio Coding 3
Mode extension : CM (complete main)
Format settings, Endianness : Big
Codec ID : A_AC3
Duration : 4 h 10 min
Bit rate mode : Constant
Bit rate : 128 kb/s
Channel(s) : 2 channels
Channel positions : Front: L R
Sampling rate : 48.0 kHz
Frame rate : 31.250 FPS (1536 spf)
Bit depth : 16 bits
Compression mode : Lossy
Stream size : 229 MiB (10%)
Language : Russian
Default : Yes
Forced : No
DURATION : 04:10:32.864000000
Audio #2
ID : 3
Format : AC-3
Format/Info : Audio Coding 3
Mode extension : CM (complete main)
Format settings, Endianness : Big
Codec ID : A_AC3
Duration : 4 h 10 min
Bit rate mode : Constant
Bit rate : 128 kb/s
Channel(s) : 2 channels
Channel positions : Front: L R
Sampling rate : 48.0 kHz
Frame rate : 31.250 FPS (1536 spf)
Bit depth : 16 bits
Compression mode : Lossy
Stream size : 229 MiB (10%)
Language : English
Default : No
Forced : No
DURATION : 04:10:32.864000000
Продолжительность
04:10:33
Счёт
Счёт
[1] Andy MURRAY GBR - [3] Stan WAWRINKA SUI
7-6, 3-6, 7-5, 6-7, 1-6
Download
Чтобы скачать .torrent файл необходима регистрация
Сайт не распространяет и не хранит электронные версии произведений, а лишь предоставляет доступ к создаваемому пользователями каталогу ссылок на торрент-файлы, которые содержат только списки хеш-сумм
[Профиль]  [ЛС] 

tamara196

Стаж: 7 лет 5 месяцев

Сообщений: 19


tamara196 · 10-Июн-17 08:30 (спустя 7 часов)

[Цитировать] 

Скачала, а изображения нет, только звук((((((((((((((((((((
[Профиль]  [ЛС] 

Злобный Санчез

Стаж: 7 лет 3 месяца

Сообщений: 8716


Злобный Санчез · 10-Июн-17 11:20 (спустя 2 часа 49 мин.)

[Цитировать] 

tamara196
печально
скрытый текст

и даже он
[Профиль]  [ЛС] 

199121

Стаж: 6 лет 10 месяцев

Сообщений: 113

199121 · 10-Июн-17 13:27 (спустя 2 часа 6 мин.)

[Цитировать] 

скрытый текст
Марий как то без борьбы последний
[Профиль]  [ЛС] 

Lapiorva

Стаж: 7 лет 1 месяц

Сообщений: 11


Lapiorva · 10-Июн-17 18:36 (спустя 5 часов)

[Цитировать] 

tamara196 писал(а):
73271023Скачала, а изображения нет, только звук((((((((((((((((((((
Попробуйте установить "K-Lite Codec Pack" (во время инсталяции во всех пунктах поставить галочки). Либо скачайте какой-нибудь другой проигрыватель. У меня пошло в обычном MPC-плеере.
[Профиль]  [ЛС] 
 
Ответить
Loading...
Error