Адрес РуТрекера для пользователей РФ - MainTracker.org

Расскажи друзьям:  

Победные финалы Роджера Федерера (Часть 2, 2006-2010) / Victory finals Roger Federer Part 2 [2006-2010, Теннис, VHSRip-TVRip, HDTVRip] скачать через торрент

Страницы:  1

Ответить
Автор
Сообщение

zeedorf

Стаж: 10 лет 5 месяцев

Сообщений: 1400


zeedorf · 30-Мар-16 13:51 (1 год 8 месяцев назад, ред. 03-Апр-16 18:42)

Победные финалы Роджера ФедерераЧасть 2, 2006-2010

Вид спорта: Большой теннис
Дата/Год выпуска: 2006-2010
Комментарий: Профессиональный
Участники: Роджер Федерер, Рафаэль Надаль, Энди Роддик, Фернандо Гонсалес, Новак Джокович и др.
2006
34) 08.01.2006 / Доха, Катар (2) / vs Гаэль Монфис
Язык комментариев: Французский
Тех.данные
General
Complete name : Roger Federer victory finals Part 2(2006-2010)\2006\34)ATP.Doha 2006.Federer-Monfils.mp4
Format : MPEG-4
Format profile : Base Media
Codec ID : isom
File size : 699 MiB
Overall bit rate mode : Variable
Overall bit rate : 850 Kbps
Writing application : Lavf52.64.2
Video #1
ID : 1
Format : AVC
Format/Info : Advanced Video Codec
Format profile : Main@L3.0
Format settings, CABAC : Yes
Format settings, ReFrames : 3 frames
Codec ID : avc1
Codec ID/Info : Advanced Video Coding
Bit rate : 718 Kbps
Width : 640 pixels
Height : 480 pixels
Display aspect ratio : 4:3
Frame rate mode : Variable
Frame rate : 29.970 fps
Minimum frame rate : 29.970 fps
Maximum frame rate : 30.000 fps
Color space : YUV
Chroma subsampling : 4:2:0
Bit depth : 8 bits
Scan type : Progressive
Bits/(Pixel*Frame) : 0.078
Stream size : 590 MiB (84%)
Audio #2
ID : 2
Format : AAC
Format/Info : Advanced Audio Codec
Format profile : LC
Codec ID : 40
Bit rate mode : Variable
Bit rate : 126 Kbps
Channel(s) : 2 channels
Channel positions : Front: L R
Sampling rate : 44.1 KHz
Compression mode : Lossy
Stream size : 103 MiB (15%)
Продолжительность
01:54:55
Скриншоты
Счёт/Итог
скрытый текст
6-3/7-6(5)
35) 29.01.2006 / Australian Open (2) / vs Маркос Багдатис
Язык комментариев: Русский, Английский
Тех.данные
General
Complete name : Roger Federer victory finals Part 2(2006-2010)\2006\35)Australian Open 2006.Final.Federer-Baghdatis.avi
Format : AVI
Format/Info : Audio Video Interleave
Format profile : OpenDML
File size : 3.10 GiB
Overall bit rate : 2 650 Kbps
Writing application : VirtualDubMod 1.5.10.2 (build 2540/release)
Writing library : VirtualDubMod build 2540/release
Video #0
ID : 0
Format : MPEG-4 Visual
Format profile : Advanced Simple@L5
Format settings, BVOP : 1
Format settings, QPel : No
Format settings, GMC : No warppoints
Format settings, Matrix : Custom
Codec ID : XVID
Codec ID/Hint : XviD
Bit rate : 2 375 Kbps
Width : 560 pixels
Height : 416 pixels
Display aspect ratio : 4:3
Frame rate : 29.970 fps
Color space : YUV
Chroma subsampling : 4:2:0
Bit depth : 8 bits
Scan type : Progressive
Compression mode : Lossy
Bits/(Pixel*Frame) : 0.340
Stream size : 2.78 GiB (90%)
Writing library : XviD 1.1.0 (UTC 2005-11-22)
Audio #1
ID : 1
Format : MPEG Audio
Format version : Version 1
Format profile : Layer 3
Mode : Joint stereo
Mode extension : MS Stereo
Codec ID : 55
Codec ID/Hint : MP3
Bit rate mode : Constant
Bit rate : 128 Kbps
Channel(s) : 2 channels
Sampling rate : 48.0 KHz
Compression mode : Lossy
Stream size : 153 MiB (5%)
Alignment : Aligned on interleaves
Interleave, duration : 33 ms (1.00 video frame)
Interleave, preload duration : 504 ms
Audio #2
ID : 2
Format : MPEG Audio
Format version : Version 1
Format profile : Layer 3
Mode : Joint stereo
Mode extension : MS Stereo
Codec ID : 55
Codec ID/Hint : MP3
Bit rate mode : Constant
Bit rate : 128 Kbps
Channel(s) : 2 channels
Sampling rate : 48.0 KHz
Compression mode : Lossy
Stream size : 153 MiB (5%)
Alignment : Aligned on interleaves
Interleave, duration : 33 ms (1.00 video frame)
Interleave, preload duration : 504 ms
Продолжительность
02:47:29
Скриншоты
Счёт/Итог
скрытый текст
5-7/7-5/6-0/6-2
36) 19.03.2006 / Индиан-Уэллс, США (3) / vs Джеймс Блейк
Язык комментариев: Английский
Тех.данные
General
Complete name : Roger Federer victory finals Part 2(2006-2010)\2006\36)ATP.IW 2006.Federer-Blake.avi
Format : AVI
Format/Info : Audio Video Interleave
File size : 1.33 GiB
Overall bit rate : 1 539 Kbps
Writing library : Boilsoft Joiner build 2411/release
Video #0
ID : 0
Format : MPEG-4 Visual
Format profile : Simple@L3
Format settings, BVOP : 2
Format settings, QPel : No
Format settings, GMC : No warppoints
Format settings, Matrix : Default (H.263)
Muxing mode : Packed bitstream
Codec ID : XVID
Codec ID/Hint : XviD
Bit rate : 1 335 Kbps
Width : 576 pixels
Height : 400 pixels
Display aspect ratio : 1.440
Frame rate : 29.970 fps
Color space : YUV
Chroma subsampling : 4:2:0
Bit depth : 8 bits
Scan type : Progressive
Compression mode : Lossy
Bits/(Pixel*Frame) : 0.193
Stream size : 1.16 GiB (87%)
Writing library : XviD 1.1.0 Beta1 (UTC 2005-01-16)
Audio #1
ID : 1
Format : MPEG Audio
Format version : Version 1
Format profile : Layer 3
Codec ID : 55
Codec ID/Hint : MP3
Bit rate mode : Constant
Bit rate : 192 Kbps
Channel(s) : 2 channels
Sampling rate : 44.1 KHz
Compression mode : Lossy
Delay relative to video : 26ms
Stream size : 170 MiB (12%)
Alignment : Split accross interleaves
Interleave, duration : 33 ms (1.00 video frame)
Interleave, preload duration : 500 ms
Продолжительность
02:04:07
Скриншоты
Счёт/Итог
скрытый текст
7-5/6-3/6-0
37) 02.04.2006 / Майами, США (2) / vs Иван Любичич
Язык комментариев: Английский
Тех.данные
Продолжительность
Скриншоты
Счёт/Итог
скрытый текст
7-6(5)/7-6(4)/7-6(6)
38) 18.06.2006 / Халле, Германия (4) / vs Томаш Бердых
Язык комментариев:
Тех.данные
Продолжительность
Скриншоты
Счёт/Итог
скрытый текст
6-0/6-7(4)/6-2
39) 09.07.2006 / Уимблдон (4) / vs Рафаэль Надаль
Язык комментариев:
Тех.данные
Продолжительность
Скриншоты
Счёт/Итог
скрытый текст
6-0/7-6(5)/6-7(2)/6-3
40) 13.08.2006 / Торонто, Канада (2) / vs Ришар Гаске
Язык комментариев:
Тех.данные
Продолжительность
Скриншоты
Счёт/Итог
скрытый текст
2-6/6-3/6-2
41) 10.09.2006 / US Open (3) / vs Энди Роддик
Язык комментариев:
Тех.данные
Продолжительность
Скриншоты
Счёт/Итог
скрытый текст
6-2/4-6/7-5/6-1
42) 08.10.2006 / Токио, Япония / vs Тим Хэнмен
Язык комментариев:
Тех.данные
Продолжительность
Скриншоты
Счёт/Итог
скрытый текст
6-3/6-3
43) 22.10.2006 / Мадрид, Испания / vs Фернандо Гонсалес
Язык комментариев: Английский
Тех.данные
Продолжительность
Скриншоты
Счёт/Итог
скрытый текст
7-5/6-1/6-0
44) 29.10.2006 / Базель, Швейцария / vs Фернандо Гонсалес
Язык комментариев:
Тех.данные
Продолжительность
Скриншоты
Счёт/Итог
скрытый текст
6-3/6-2/7-6(3)
45) 16.11.2006 / Masters Cup (3), Шанхай / vs Джеймс Блейк
Язык комментариев:
Тех.данные
Продолжительность
Скриншоты
Счёт/Итог
скрытый текст
6-0/6-3/6-4
2007
46) 28.01.2007 / Australian Open (3) / vs Фернандо Гонсалес
Язык комментариев:
Тех.данные
Продолжительность
Скриншоты
Счёт/Итог
скрытый текст
7-6(2)/6-4/6-4
47) 03.03.2007 / Дубай, ОАЭ (4) / vs Михаил Южный
Язык комментариев:
Тех.данные
Продолжительность
Скриншоты
Счёт/Итог
скрытый текст
6-4/6-3
48) 20.05.2007 / Гамбург, Германия (4) / vs Рафаэль Надаль
Язык комментариев:
Тех.данные
Продолжительность
Скриншоты
Счёт/Итог
скрытый текст
2-6/6-2/6-0
49) 08.07.2007 / Уимблдон (5) / vs Рафаэль Надаль
Язык комментариев:
Тех.данные
Продолжительность
Скриншоты
Счёт/Итог
скрытый текст
7-6(7)/4-6/7-6(3)/2-6/6-2
50) 19.08.2007 / Цинциннати, США (2) / vs Джеймс Блейк
Язык комментариев:
Тех.данные
Продолжительность
Скриншоты
Счёт/Итог
скрытый текст
6-1/6-4
51) 09.07.2007 / US Open (4) / vs Новак Джокович
Язык комментариев:
Тех.данные
Продолжительность
Скриншоты
Счёт/Итог
скрытый текст
7-6(4)/7-6(2)/6-4
52) 28.10.2007 / Базель, Швейцария (2) / vs Яркко Ниеминен
Язык комментариев:
Тех.данные
Продолжительность
Скриншоты
Счёт/Итог
скрытый текст
6-3/6-4
53) 18.11.2007 / Masters Cup (4), Шанхай / vs Давид Феррер
Язык комментариев:
Тех.данные
Продолжительность
Скриншоты
Счёт/Итог
скрытый текст
6-2/6-3/6-2
2008
54) 20.04.2008 / Оэйраш, Португалия / vs Николай Давыденко
Язык комментариев:
Тех.данные
Продолжительность
Скриншоты
Счёт/Итог
скрытый текст
7-6(5)/1-2 - отказ
55) 15.06.2008 / Халле, Германия (5) / vs Филипп Кольшрайбер
Язык комментариев:
Тех.данные
Продолжительность
Скриншоты
Счёт/Итог
скрытый текст
6-3/6-4
56) 09.09.2008 / US Open (5) / vs Энди Маррей
Язык комментариев:
Тех.данные
Продолжительность
Скриншоты
Счёт/Итог
скрытый текст
6-2/7-5/6-2
57) 26.10.2008 / Базель, Швейцария (3) / vs Давид Налбандян
Язык комментариев:
Тех.данные
Продолжительность
Скриншоты
Счёт/Итог
скрытый текст
6-3/6-4
2009
58) 17.05.2009 / Мадрид, Испания (2) / vs Рафаэль Надаль
Язык комментариев:
Тех.данные
Продолжительность
Скриншоты
Счёт/Итог
скрытый текст
6-4/6-4
59) 07.06.2009 / Roland Garros / vs Робин Сёдерлинг
Язык комментариев:
Тех.данные
Продолжительность
Скриншоты
Счёт/Итог
скрытый текст
6-1/7-6(1)/6-4
60) 05.07.2009 / Уимблдон (6) / vs Энди Роддик
Язык комментариев:
Тех.данные
Продолжительность
Скриншоты
Счёт/Итог
скрытый текст
5-7/7-6(6)/7-6(5)/3-6/16-14
61) 23.08.2009 / Цинциннати, США (3) / vs Новак Джокович
Язык комментариев:
Тех.данные
Продолжительность
Скриншоты
Счёт/Итог
скрытый текст
6-1/7-5
2010
62) 31.01.2010 / Australian Open (4) / vs Энди Маррей
Язык комментариев:
Тех.данные
Продолжительность
Скриншоты
Счёт/Итог
скрытый текст
6-3/6-4/7-6(11)
63) 22.08.2010 / Цинциннати, США (4) / vs Марди Фиш
Язык комментариев:
Тех.данные
Продолжительность
Скриншоты
Счёт/Итог
скрытый текст
6-7(5)/7-6(1)/6-4
64) 22.10.2010 / Стокгольм, Швеция / vs Флориан Майер
Язык комментариев:
Тех.данные
Продолжительность
Скриншоты
Счёт/Итог
скрытый текст
6-4/6-3
65) 07.11.2010 / Базель, Швейцария (4) / vs Новак Джокович
Язык комментариев:
Тех.данные
Продолжительность
Скриншоты
Счёт/Итог
скрытый текст
6-4/3-6/6-1
66) 28.11.2010 / World Tour Finals (5), Лондон/ vs Рафаэль Надаль
Язык комментариев:
Тех.данные
Продолжительность
Скриншоты
Счёт/Итог
скрытый текст
6-3/3-6/6-1
Download
Чтобы скачать .torrent файл необходима регистрация
Сайт не распространяет и не хранит электронные версии произведений, а лишь предоставляет доступ к создаваемому пользователями каталогу ссылок на торрент-файлы, которые содержат только списки хеш-сумм
[Профиль]  [ЛС] 

musician-mg

Стаж: 10 лет 8 месяцев

Сообщений: 259

musician-mg · 09-Апр-17 23:45 (спустя 1 год)

[Цитировать] 

Когда третья часть?
[Профиль]  [ЛС] 
 
Ответить
Loading...
Error